<?xml version="1.0" standalone="no"?>
<!DOCTYPE svg PUBLIC "-//W3C//DTD SVG 1.1//EN" "http://www.w3.org/Graphics/SVG/1.1/DTD/svg11.dtd" >
<svg xmlns="http://www.w3.org/2000/svg" xmlns:xlink="http://www.w3.org/1999/xlink" version="1.1">
<metadata>
Created by FontForge 20170731 at Sat Aug  8 02:36:11 2015
 By Aleksey,,,
(c) 2015 Apple Inc. All rights reserved.
</metadata>
<defs>
<font id="SFUIDisplay-Heavy" horiz-adv-x="0" >
  <font-face 
    font-family="SF UI Display"
    font-weight="800"
    font-stretch="normal"
    units-per-em="2048"
    panose-1="0 0 9 0 0 0 0 0 0 0"
    ascent="1638"
    descent="-410"
    x-height="1113"
    cap-height="1443"
    bbox="-623 -867 2682 2206"
    underline-thickness="227"
    underline-position="-603"
    unicode-range="U+0020-FB02"
  />
<missing-glyph horiz-adv-x="2048" 
d="M100 -494v165h1848v-165h-1848zM100 -38v165h1848v-165h-1848zM100 418v165h1848v-165h-1848zM100 873v165h1848v-165h-1848zM100 1329v165h1848v-165h-1848zM100 1785v165h1848v-165h-1848z" />
    <glyph glyph-name=".notdef" horiz-adv-x="2048" 
d="M100 -494v165h1848v-165h-1848zM100 -38v165h1848v-165h-1848zM100 418v165h1848v-165h-1848zM100 873v165h1848v-165h-1848zM100 1329v165h1848v-165h-1848zM100 1785v165h1848v-165h-1848z" />
    <glyph glyph-name=".null" 
 />
    <glyph glyph-name="nonmarkingreturn" 
 />
    <glyph glyph-name="space" unicode=" " horiz-adv-x="414" 
 />
    <glyph glyph-name="exclam" unicode="!" horiz-adv-x="701" 
d="M169 1443h364l-31 -970h-302zM351 -33q-79 0 -134.5 52.5t-55.5 127.5t55.5 127t134.5 52q78 0 133.5 -52t55.5 -127t-55.5 -127.5t-133.5 -52.5z" />
    <glyph glyph-name="quotedbl" unicode="&#x22;" horiz-adv-x="993" 
d="M391 851h-297v592h297v-592zM899 851h-298v592h298v-592z" />
    <glyph glyph-name="numbersign" unicode="#" horiz-adv-x="1305" 
d="M1245 840h-213l-42 -217h205l-47 -253h-208l-73 -370h-264l74 370h-196l-74 -370h-262l73 370h-200l48 253h202l43 217h-197l48 251h198l71 353h262l-69 -353h195l70 353h264l-70 -353h210zM558 866l-54 -269h237l55 269h-238z" />
    <glyph glyph-name="dollar" unicode="$" horiz-adv-x="1372" 
d="M768 -136h-144v124q-253 13 -394 126.5t-142 305.5h347q4 -66 56.5 -113t132.5 -55v322l-119 26q-192 42 -291 148.5t-99 270.5q0 194 133.5 310.5t375.5 134.5v136h144v-137q223 -21 354.5 -138t133.5 -296h-336q-2 60 -45 106t-107 56v-311l119 -22q397 -77 397 -415
q0 -198 -133.5 -315.5t-382.5 -137.5v-126zM942 402q0 115 -174 148v-298q82 6 128 46t46 104zM466 1053q0 -112 158 -144v284q-70 -5 -114 -43.5t-44 -96.5z" />
    <glyph glyph-name="percent" unicode="%" horiz-adv-x="1680" 
d="M1638 359q0 -176 -92.5 -279.5t-250.5 -103.5t-250.5 103.5t-92.5 279.5q0 175 92 276.5t251 101.5q160 0 251.5 -101t91.5 -277zM1295 179q40 0 63 48t23 132q0 83 -22.5 128.5t-63.5 45.5q-40 0 -62.5 -46t-22.5 -129t22.5 -131t62.5 -48zM728 1117
q0 -176 -92.5 -279.5t-250.5 -103.5t-250.5 103.5t-92.5 279.5q0 175 92 276.5t251 101.5q160 0 251.5 -101t91.5 -277zM385 937q40 0 63 48t23 132q0 83 -22.5 128.5t-63.5 45.5q-40 0 -62.5 -46t-22.5 -129t22.5 -131t62.5 -48zM453 0h-301l1052 1443h300z" />
    <glyph glyph-name="ampersand" unicode="&#x26;" horiz-adv-x="1472" 
d="M1112 0l-100 106q-74 -63 -189.5 -98t-248.5 -35q-238 0 -376 107.5t-138 293.5q0 121 62 210.5t197 165.5q3 1 20.5 11t33 18.5t16.5 8.5q-98 99 -138.5 173.5t-40.5 154.5q0 148 122.5 245.5t309.5 97.5q188 0 305 -93t117 -241q0 -221 -283 -378l231 -249
q42 74 42 214v94h285v-119q0 -114 -33 -219.5t-91 -180.5l277 -287h-380zM508 593q-67 -43 -96 -87t-29 -102q0 -84 63 -135t165 -51q69 0 129.5 22t93.5 60l-290 311q-17 -6 -36 -18zM626 902q81 43 118.5 90t37.5 106q0 61 -38.5 100t-99.5 39t-101 -39.5t-40 -99.5
q0 -45 27 -88t96 -108z" />
    <glyph glyph-name="quotesingle" unicode="'" horiz-adv-x="485" 
d="M391 851h-297v592h297v-592z" />
    <glyph glyph-name="parenleft" unicode="(" horiz-adv-x="749" 
d="M721 -277h-340q-124 155 -197.5 382t-73.5 495t69 464.5t211 378.5h334q-102 -118 -174.5 -351t-72.5 -490q0 -249 61.5 -458.5t182.5 -420.5z" />
    <glyph glyph-name="parenright" unicode=")" horiz-adv-x="749" 
d="M28 -277q121 211 182.5 420.5t61.5 458.5q0 256 -72.5 489t-174.5 352h333q143 -181 212 -378t69 -465q0 -269 -74 -496t-198 -381h-339z" />
    <glyph glyph-name="asterisk" unicode="*" horiz-adv-x="997" 
d="M788 808l-223 188l51 -288h-235l51 288l-223 -188l-117 203l277 100l-277 99l117 203l226 -193l-54 293h235l-53 -293l225 193l117 -203l-277 -99l277 -100z" />
    <glyph glyph-name="plus" unicode="+" horiz-adv-x="1372" 
d="M843 431v-425h-314v425h-399v305h399v423h314v-423h399v-305h-399z" />
    <glyph glyph-name="comma" unicode="," horiz-adv-x="595" 
d="M349 -278h-267l74 583h322z" />
    <glyph glyph-name="hyphen" unicode="-" horiz-adv-x="918" 
d="M788 431h-658v305h658v-305z" />
    <glyph glyph-name="hyphen" unicode="&#x2011;" horiz-adv-x="918" 
d="M788 431h-658v305h658v-305z" />
    <glyph glyph-name="period" unicode="." horiz-adv-x="595" 
d="M297 -13q-77 0 -131 54.5t-54 131.5t54 131.5t131 54.5q78 0 132 -54.5t54 -131.5t-54 -131.5t-132 -54.5z" />
    <glyph glyph-name="slash" unicode="/" horiz-adv-x="737" 
d="M330 -274h-330l401 1718h336z" />
    <glyph glyph-name="zero" unicode="0" horiz-adv-x="1380" 
d="M691 -36q-284 0 -448 203t-164 557t164.5 555t447.5 201q282 0 446 -201t164 -554t-163.5 -557t-446.5 -204zM691 250q110 0 173.5 122.5t63.5 351.5t-63.5 349.5t-173.5 120.5t-174.5 -121t-64.5 -348q0 -229 64.5 -352t174.5 -123z" />
    <glyph glyph-name="one" unicode="1" horiz-adv-x="1023" 
d="M451 0v1121h-7l-361 -244v316l367 250h366v-1443h-365z" />
    <glyph glyph-name="two" unicode="2" horiz-adv-x="1275" 
d="M73 999q0 214 155 347t407 133q244 0 392.5 -119t148.5 -310q0 -54 -17 -108.5t-40 -96t-62.5 -90t-67.5 -77t-73 -71.5l-345 -318v-7h623v-282h-1100v245l563 518q91 87 127.5 147.5t36.5 127.5q0 70 -55 117.5t-143 47.5q-93 0 -153.5 -57.5t-60.5 -146.5v-7h-336v7z
" />
    <glyph glyph-name="three" unicode="3" horiz-adv-x="1330" 
d="M475 611v253h175q93 0 149 47.5t56 125.5q0 79 -55 124t-153 45q-94 0 -153 -52t-62 -136h-332q4 209 158 335t405 126q241 0 386.5 -107t145.5 -285q0 -129 -83 -219t-217 -114v-8q162 -15 257.5 -107t95.5 -239q0 -198 -164.5 -317t-434.5 -119q-253 0 -409.5 127
t-167.5 338h350q5 -82 67 -129.5t166 -47.5q98 0 159.5 49.5t61.5 129.5q0 84 -60 132t-165 48h-176z" />
    <glyph glyph-name="four" unicode="4" horiz-adv-x="1373" 
d="M782 0v234h-713v307q97 187 222.5 393.5t327.5 508.5h510v-923h180v-286h-180v-234h-347zM380 517v-10h412v688h-7q-145 -216 -233.5 -362.5t-171.5 -315.5z" />
    <glyph glyph-name="five" unicode="5" horiz-adv-x="1323" 
d="M679 -36q-245 0 -403.5 128t-162.5 330h333q13 -78 78.5 -127t157.5 -49q103 0 167.5 65t64.5 168q0 107 -64 173.5t-167 66.5q-71 0 -129.5 -31t-93.5 -87h-324l68 842h966v-282h-682l-27 -356h7q42 79 125 123.5t195 44.5q206 0 339 -137t133 -348
q0 -235 -160.5 -379.5t-420.5 -144.5z" />
    <glyph glyph-name="six" unicode="6" horiz-adv-x="1364" 
d="M707 -36q-152 0 -276 60t-203 173q-148 195 -148 519q0 355 169.5 559t458.5 204q218 0 373.5 -115t184.5 -297h-357q-18 59 -73.5 95t-128.5 36q-137 0 -214 -128.5t-66 -347.5h7q42 108 140 171.5t235 63.5q204 0 339.5 -135t135.5 -340q0 -228 -162 -373t-415 -145z
M703 247q96 0 162.5 65t66.5 159q0 95 -65.5 159t-162.5 64t-162.5 -64t-65.5 -158q0 -95 66 -160t161 -65z" />
    <glyph glyph-name="seven" unicode="7" horiz-adv-x="1199" 
d="M165 0l604 1154v7h-712v282h1073v-283l-581 -1160h-384z" />
    <glyph glyph-name="eight" unicode="8" horiz-adv-x="1394" 
d="M696 -36q-279 0 -448 117.5t-169 309.5q0 146 98.5 247.5t256.5 121.5v7q-132 26 -214.5 117t-82.5 213q0 167 156.5 274.5t402.5 107.5q247 0 403 -108t156 -275q0 -120 -82 -211.5t-213 -117.5v-7q158 -21 256 -122.5t98 -247.5q0 -191 -170.5 -308.5t-447.5 -117.5z
M696 216q103 0 168 57.5t65 144.5t-65 144t-168 57q-102 0 -167 -57t-65 -144t65 -144.5t167 -57.5zM696 871q86 0 142 51t56 127q0 77 -56 128t-142 51q-85 0 -141 -51t-56 -128q0 -76 56 -127t141 -51z" />
    <glyph glyph-name="nine" unicode="9" horiz-adv-x="1370" 
d="M660 -36q-220 0 -376.5 115.5t-184.5 297.5h358q18 -59 75.5 -95.5t133.5 -36.5q135 0 210.5 127t63.5 351h-3h-2h-1q-37 -108 -135.5 -172t-239.5 -64q-204 0 -341.5 135t-137.5 340q0 226 164 371.5t416 145.5q154 0 278.5 -59.5t204.5 -172.5q148 -195 148 -519
q0 -356 -168 -560t-463 -204zM664 751q96 0 161.5 63.5t65.5 157.5q0 95 -65.5 160.5t-160.5 65.5q-96 0 -163 -65.5t-67 -159.5q0 -95 66 -158.5t163 -63.5z" />
    <glyph glyph-name="colon" unicode=":" horiz-adv-x="595" 
d="M297 -13q-77 0 -131 54.5t-54 131.5t54 131.5t131 54.5q78 0 132 -54.5t54 -131.5t-54 -131.5t-132 -54.5zM297 691q-77 0 -131 54.5t-54 131.5t54 131t131 54q78 0 132 -54t54 -131t-54 -131.5t-132 -54.5z" />
    <glyph glyph-name="semicolon" unicode=";" horiz-adv-x="595" 
d="M297 691q-77 0 -131 54.5t-54 131.5t54 131t131 54q78 0 132 -54t54 -131t-54 -131.5t-132 -54.5zM318 -278h-267l74 583h322z" />
    <glyph glyph-name="less" unicode="&#x3c;" horiz-adv-x="1372" 
d="M1182 867l-630 -277v-11l630 -271v-346l-992 486v270l992 495v-346z" />
    <glyph glyph-name="equal" unicode="=" horiz-adv-x="1372" 
d="M1229 176h-1086v303h1086v-303zM1229 688h-1086v303h1086v-303z" />
    <glyph glyph-name="greater" unicode="&#x3e;" horiz-adv-x="1372" 
d="M190 867v346l992 -495v-269l-992 -487v346l630 272v10z" />
    <glyph glyph-name="question" unicode="?" horiz-adv-x="1141" 
d="M52 1023q2 198 138.5 315.5t374.5 117.5q227 0 364.5 -110t137.5 -290q0 -110 -52.5 -190.5t-163.5 -144.5q-103 -60 -139 -104t-36 -114v-47h-312l-3 40q-14 127 25 203.5t145 137.5q102 60 136.5 102t34.5 108q0 61 -44.5 99t-115.5 38q-72 0 -117.5 -44t-47.5 -117
h-325zM526 -33q-79 0 -134 52t-55 128q0 75 55 127t134 52q78 0 133.5 -52t55.5 -127t-55.5 -127.5t-133.5 -52.5z" />
    <glyph glyph-name="at" unicode="@" horiz-adv-x="1819" 
d="M895 822q-68 0 -107 -55.5t-39 -152.5q0 -98 38.5 -153t107.5 -55t108 55.5t39 152.5t-39.5 152.5t-107.5 55.5zM926 1456q178 0 328.5 -54t256.5 -151t165.5 -236.5t59.5 -304.5q0 -235 -108 -372.5t-294 -137.5q-97 0 -163 39.5t-86 111.5h-17q-62 -152 -235 -152
q-156 0 -251 116t-95 306q0 182 91 294.5t239 112.5q82 0 144 -37.5t92 -104.5h17v118h229v-508q0 -53 22.5 -83t64.5 -30q66 0 105 81t39 222q0 272 -165 433t-442 161q-288 0 -467.5 -184t-179.5 -479q0 -301 186.5 -474t501.5 -173q149 0 240 28v-178q-114 -30 -261 -30
q-192 0 -354 59.5t-276.5 166.5t-178.5 263t-64 343q0 244 108 434t303 295t445 105z" />
    <glyph glyph-name="A" unicode="A" horiz-adv-x="1477" 
d="M1058 0l-91 317h-472l-92 -317h-374l485 1443h449l485 -1443h-390zM727 1137l-161 -556h329l-160 556h-8z" />
    <glyph glyph-name="B" unicode="B" horiz-adv-x="1352" 
d="M802 0h-693v1443h675q213 0 334.5 -96.5t121.5 -263.5q0 -120 -81 -208t-202 -105v-8q148 -7 249 -105t101 -241q0 -190 -137 -303t-368 -113zM476 1183v-328h193q100 0 156.5 44.5t56.5 122.5q0 76 -51.5 118.5t-143.5 42.5h-211zM476 260h222q114 0 175 48.5t61 139.5
q0 88 -62 136t-176 48h-220v-372z" />
    <glyph glyph-name="C" unicode="C" horiz-adv-x="1488" 
d="M770 -25q-326 0 -513.5 197.5t-187.5 549.5q0 351 188 548.5t513 197.5q181 0 328 -72.5t233.5 -204t91.5 -299.5h-353q-13 127 -96 204.5t-204 77.5q-151 0 -239 -121t-88 -330q0 -212 88 -333t240 -121q121 0 202.5 74t98.5 201h353q-13 -256 -194 -412.5t-461 -156.5z
" />
    <glyph glyph-name="D" unicode="D" horiz-adv-x="1459" 
d="M109 1443h589q328 0 509.5 -185t181.5 -528q0 -345 -182 -537.5t-509 -192.5h-589v1443zM476 1147v-851h173q180 0 273.5 109t93.5 324q0 202 -96 310t-271 108h-173z" />
    <glyph glyph-name="E" unicode="E" horiz-adv-x="1196" 
d="M1098 296v-296h-989v1443h989v-296h-622v-287h585v-270h-585v-294h622z" />
    <glyph glyph-name="F" unicode="F" horiz-adv-x="1144" 
d="M476 0h-367v1443h982v-296h-615v-328h559v-281h-559v-538z" />
    <glyph glyph-name="G" unicode="G" horiz-adv-x="1510" 
d="M1437 610q0 -296 -174 -465.5t-481 -169.5q-335 0 -524 197.5t-189 551.5q0 350 188 547t516 197q261 0 441 -140t208 -361h-363q-27 96 -103 151t-182 55q-156 0 -243.5 -117t-87.5 -327q0 -213 94 -336t253 -123q124 0 204 67t88 176l1 22h-264v252h618v-177z" />
    <glyph glyph-name="H" unicode="H" horiz-adv-x="1527" 
d="M1417 0h-366v581h-575v-581h-367v1443h367v-566h575v566h366v-1443z" />
    <glyph glyph-name="I" unicode="I" horiz-adv-x="585" 
d="M476 0h-367v1443h367v-1443z" />
    <glyph glyph-name="J" unicode="J" horiz-adv-x="1210" 
d="M25 470h353q1 -86 47.5 -136.5t125.5 -50.5q81 0 124 50.5t43 146.5v963h366v-965q0 -242 -139.5 -373.5t-389.5 -131.5q-243 0 -386.5 134t-143.5 363z" />
    <glyph glyph-name="K" unicode="K" horiz-adv-x="1401" 
d="M476 0h-367v1443h367v-634h8l491 634h394l-503 -641l532 -802h-431l-368 564l-123 -156v-408z" />
    <glyph glyph-name="L" unicode="L" horiz-adv-x="1132" 
d="M1073 296v-296h-964v1443h367v-1147h597z" />
    <glyph glyph-name="M" unicode="M" horiz-adv-x="1802" 
d="M1693 1443v-1443h-323v901h-7l-357 -886h-210l-356 886h-8v-901h-323v1443h424l364 -927h8l364 927h424z" />
    <glyph glyph-name="N" unicode="N" horiz-adv-x="1479" 
d="M457 0h-348v1443h293l612 -839h8v839h348v-1443h-290l-615 847h-8v-847z" />
    <glyph glyph-name="O" unicode="O" horiz-adv-x="1564" 
d="M782 1468q328 0 520 -201t192 -546t-192 -545.5t-520 -200.5q-329 0 -521 200.5t-192 545.5t192.5 546t520.5 201zM782 1170q-154 0 -246.5 -121.5t-92.5 -327.5q0 -205 92 -326.5t247 -121.5q154 0 246.5 121.5t92.5 326.5q0 206 -92.5 327.5t-246.5 121.5z" />
    <glyph glyph-name="P" unicode="P" horiz-adv-x="1315" 
d="M109 1443h633q233 0 376 -140t143 -371q0 -230 -150 -369.5t-392 -139.5h-243v-423h-367v1443zM476 1162v-463h166q118 0 183 60t65 172t-64.5 171.5t-181.5 59.5h-168z" />
    <glyph glyph-name="Q" unicode="Q" horiz-adv-x="1563" 
d="M1459 -121h-341l-87 133q-114 -37 -249 -37q-330 0 -521.5 199t-191.5 547q0 344 192.5 545.5t520.5 201.5q327 0 519 -201.5t192 -545.5q0 -182 -54.5 -326t-158.5 -235zM782 268q43 0 76 10l-146 229h311l32 -43q65 105 65 257q0 206 -92 330t-246 124t-246.5 -124
t-92.5 -330t92.5 -329.5t246.5 -123.5z" />
    <glyph glyph-name="R" unicode="R" horiz-adv-x="1358" 
d="M476 1166v-410h217q101 0 158 55t57 149q0 93 -59 149.5t-157 56.5h-216zM476 505v-505h-367v1443h620q268 0 411 -125t143 -351q0 -136 -65 -246.5t-181 -161.5l288 -559h-412l-247 505h-190z" />
    <glyph glyph-name="S" unicode="S" horiz-adv-x="1334" 
d="M63 418h349q10 -73 83.5 -119t176.5 -46q106 0 171 42.5t65 108.5q0 60 -50.5 93.5t-174.5 59.5l-189 37q-199 38 -301 143.5t-102 270.5q0 208 160.5 334t413.5 126q268 0 421.5 -120.5t156.5 -325.5h-338q-5 78 -70 123t-166 45q-96 0 -154.5 -40t-58.5 -106
q0 -58 50.5 -93.5t164.5 -58.5l187 -35q213 -41 313 -141t100 -271q0 -215 -165 -342.5t-444 -127.5q-277 0 -436.5 117t-162.5 326z" />
    <glyph glyph-name="T" unicode="T" horiz-adv-x="1259" 
d="M813 0h-367v1147h-400v296h1167v-296h-400v-1147z" />
    <glyph glyph-name="U" unicode="U" horiz-adv-x="1461" 
d="M476 1443v-892q0 -127 66.5 -197.5t188.5 -70.5t188 70.5t66 197.5v892h367v-931q0 -243 -170 -390t-451 -147q-282 0 -452 147t-170 390v931h367z" />
    <glyph glyph-name="V" unicode="V" horiz-adv-x="1440" 
d="M951 0h-462l-460 1443h417l278 -1084h8l277 1084h402z" />
    <glyph glyph-name="W" unicode="W" horiz-adv-x="2022" 
d="M1007 901l-243 -901h-346l-377 1443h379l195 -975h8l241 975h294l241 -975h8l195 975h379l-377 -1443h-346l-243 901h-8z" />
    <glyph glyph-name="X" unicode="X" horiz-adv-x="1458" 
d="M42 0l441 723v8l-440 712h428l265 -488h7l267 488h407l-459 -716v-7l455 -720h-412l-280 468h-8l-281 -468h-390z" />
    <glyph glyph-name="Y" unicode="Y" horiz-adv-x="1419" 
d="M893 0h-367v496l-497 947h394l287 -600h7l286 600h387l-497 -947v-496z" />
    <glyph glyph-name="Z" unicode="Z" horiz-adv-x="1307" 
d="M84 0v233l686 907v7h-675v296h1106v-233l-683 -907v-7h705v-296h-1139z" />
    <glyph glyph-name="bracketleft" unicode="[" horiz-adv-x="803" 
d="M117 1444h639v-257h-299v-1171h312v-256h-652v1684z" />
    <glyph glyph-name="backslash" unicode="\" horiz-adv-x="737" 
d="M408 -275l-408 1718h337l400 -1718h-329z" />
    <glyph glyph-name="bracketright" unicode="]" horiz-adv-x="803" 
d="M686 1444v-1684h-652v256h312v1171h-299v257h639z" />
    <glyph glyph-name="asciicircum" unicode="^" horiz-adv-x="1021" 
d="M501 1141l-167 -333h-295l325 604h297l321 -604h-305l-158 333h-18z" />
    <glyph glyph-name="underscore" unicode="_" horiz-adv-x="872" 
d="M914 -373h-956v266h956v-266z" />
    <glyph glyph-name="grave" unicode="`" horiz-adv-x="1013" 
d="M775 1269h-275l-264 316h312z" />
    <glyph glyph-name="a" unicode="a" horiz-adv-x="1191" 
d="M546 231q88 0 149.5 47.5t61.5 122.5v77l-205 -14q-75 -5 -115.5 -36t-40.5 -82q0 -53 40.5 -84t109.5 -31zM421 -15q-159 0 -267.5 94.5t-108.5 242.5q0 155 115.5 241t335.5 100l261 16v64q0 67 -44.5 103.5t-120.5 36.5q-71 0 -117 -33.5t-54 -86.5h-319
q7 169 144.5 271.5t362.5 102.5q222 0 358 -103.5t136 -271.5v-762h-344v160h-7q-44 -82 -135.5 -128.5t-195.5 -46.5z" />
    <glyph glyph-name="b" unicode="b" horiz-adv-x="1293" 
d="M797 -15q-121 0 -210.5 54t-132.5 152h-7v-191h-352v1515h354v-597h8q43 100 131 155t206 55q211 0 328 -150t117 -421t-116.5 -421.5t-325.5 -150.5zM663 849q-97 0 -156 -80t-59 -213t58.5 -212.5t156.5 -79.5t156 79.5t58 213.5q0 133 -58.5 212.5t-155.5 79.5z" />
    <glyph glyph-name="c" unicode="c" horiz-adv-x="1185" 
d="M1138 677h-325q-9 87 -60.5 138.5t-131.5 51.5q-98 0 -153.5 -81.5t-55.5 -228.5q0 -149 55 -229.5t154 -80.5q81 0 131.5 47.5t60.5 134.5h326q-8 -210 -148.5 -331.5t-373.5 -121.5q-261 0 -412 155t-151 426q0 268 151 424t410 156q232 0 373.5 -126t149.5 -334z" />
    <glyph glyph-name="d" unicode="d" horiz-adv-x="1289" 
d="M499 -15q-207 0 -326 153t-119 421q0 265 120 417t328 152q119 0 207.5 -57.5t126.5 -152.5h7v597h355v-1515h-353v191h-6q-35 -91 -127 -148.5t-213 -57.5zM631 849q-99 0 -157 -78.5t-58 -213.5q0 -136 57.5 -214.5t157.5 -78.5q99 0 156.5 78t57.5 214
q0 135 -57.5 214t-156.5 79z" />
    <glyph glyph-name="e" unicode="e" horiz-adv-x="1205" 
d="M611 885q-85 0 -143 -57t-65 -146h414q-5 92 -61.5 147.5t-144.5 55.5zM825 350h320q-26 -171 -168.5 -272.5t-358.5 -101.5q-264 0 -414 153t-150 422t149 427.5t403 158.5q249 0 397.5 -151.5t148.5 -405.5v-101h-753v-22q0 -102 62 -165.5t162 -63.5q74 0 128 32.5
t74 89.5z" />
    <glyph glyph-name="f" unicode="f" horiz-adv-x="789" 
d="M178 0v851h-149v262h149v97q0 164 90 234.5t302 70.5q74 0 156 -11v-234q-37 7 -81 7q-64 0 -93 -22.5t-29 -71.5v-70h204v-262h-195v-851h-354z" />
    <glyph glyph-name="g" unicode="g" horiz-adv-x="1287" 
d="M630 274q100 0 157.5 74.5t57.5 208.5t-58 213t-157 79t-156.5 -78.5t-57.5 -212.5q0 -135 57 -209.5t157 -74.5zM624 -413q-236 0 -384 92.5t-155 247.5h344q11 -47 67.5 -75.5t133.5 -28.5q97 0 155 46.5t58 126.5v211h-7q-34 -89 -125.5 -142.5t-213.5 -53.5
q-201 0 -322 146.5t-121 402.5q0 265 120 416.5t329 151.5q118 0 207.5 -57.5t128.5 -152.5h6v195h353v-1091q0 -198 -157 -316.5t-417 -118.5z" />
    <glyph glyph-name="h" unicode="h" horiz-adv-x="1269" 
d="M95 0v1515h347v-611h7q44 112 133 170t216 58q185 0 286 -111t101 -309v-712h-355v636q0 98 -47.5 152.5t-137.5 54.5q-92 0 -144 -59.5t-52 -156.5v-627h-354z" />
    <glyph glyph-name="i" unicode="i" horiz-adv-x="537" 
d="M91 0v1113h355v-1113h-355zM268 1205q-76 0 -129 50t-53 125q0 74 53 124.5t129 50.5t129.5 -50.5t53.5 -124.5q0 -75 -53 -125t-130 -50z" />
    <glyph glyph-name="j" unicode="j" horiz-adv-x="537" 
d="M446 1113v-1140q0 -169 -109.5 -260t-313.5 -91q-55 0 -103 5v253q20 -2 42 -2q69 0 99 25t30 83v1127h355zM268 1205q-76 0 -129 50t-53 125q0 74 53 124.5t129 50.5t129.5 -50.5t53.5 -124.5q0 -75 -53 -125t-130 -50z" />
    <glyph glyph-name="k" unicode="k" horiz-adv-x="1179" 
d="M456 687l327 426h396l-400 -477l423 -636h-408l-277 424l-68 -79v-345h-354v1515h354v-828h7z" />
    <glyph glyph-name="l" unicode="l" horiz-adv-x="545" 
d="M95 0v1515h354v-1515h-354z" />
    <glyph glyph-name="m" unicode="m" horiz-adv-x="1868" 
d="M89 0v1113h344v-214h7q33 107 119 170t199 63q124 0 205 -61.5t105 -174.5h7q33 108 126.5 172t217.5 64q163 0 264 -104.5t101 -273.5v-754h-354v664q0 89 -40.5 134.5t-119.5 45.5q-75 0 -119.5 -50t-44.5 -134v-660h-338v669q0 84 -41.5 129.5t-118.5 45.5
q-74 0 -119.5 -51t-45.5 -135v-658h-354z" />
    <glyph glyph-name="n" unicode="n" horiz-adv-x="1256" 
d="M89 0v1113h344v-209h7q92 228 345 228q185 0 286 -110.5t101 -308.5v-713h-355v637q0 98 -46 152t-136 54q-89 0 -140.5 -59.5t-51.5 -155.5v-628h-354z" />
    <glyph glyph-name="o" unicode="o" horiz-adv-x="1242" 
d="M621 -24q-265 0 -416 153.5t-151 427.5q0 269 153 424.5t414 155.5q262 0 414.5 -154.5t152.5 -425.5q0 -275 -151 -428t-416 -153zM621 237q98 0 153 83.5t55 236.5q0 149 -56 234t-152 85q-97 0 -152.5 -84.5t-55.5 -234.5q0 -153 55 -236.5t153 -83.5z" />
    <glyph glyph-name="p" unicode="p" horiz-adv-x="1287" 
d="M787 1128q211 0 328.5 -150t117.5 -421t-116.5 -421.5t-325.5 -150.5q-121 0 -210 54t-131 151h-7v-550h-354v1473h352v-195h7q42 99 131 154.5t208 55.5zM656 264q98 0 156 79.5t58 213.5q0 133 -58.5 212.5t-155.5 79.5t-155.5 -80t-58.5 -213q0 -134 58 -213t156 -79z
" />
    <glyph glyph-name="q" unicode="q" horiz-adv-x="1287" 
d="M503 1128q119 0 208.5 -57.5t127.5 -152.5h6v195h353v-1473h-355v550h-7q-35 -91 -126.5 -148t-212.5 -57q-206 0 -324.5 153t-118.5 421q0 265 120 417t329 152zM630 264q100 0 157.5 78t57.5 214q0 134 -58 213.5t-157 79.5t-156.5 -78.5t-57.5 -213.5q0 -137 57 -215
t157 -78z" />
    <glyph glyph-name="r" unicode="r" horiz-adv-x="816" 
d="M89 0v1113h344v-209h7q61 224 263 224q49 0 91 -14v-304q-46 20 -115 20q-114 0 -175 -62.5t-61 -179.5v-588h-354z" />
    <glyph glyph-name="s" unicode="s" horiz-adv-x="1128" 
d="M69 776q0 166 133.5 263.5t360.5 97.5q225 0 357 -100t134 -271h-324q-2 60 -48.5 95.5t-122.5 35.5q-67 0 -108 -27t-41 -71q0 -67 128 -94l230 -48q167 -35 241.5 -107t74.5 -198q0 -171 -142 -273.5t-375 -102.5q-237 0 -375 100.5t-149 272.5h344q8 -63 57.5 -98
t129.5 -35q74 0 116.5 25.5t42.5 70.5q0 35 -28.5 56t-94.5 35l-209 44q-163 34 -247.5 118t-84.5 211z" />
    <glyph glyph-name="t" unicode="t" horiz-adv-x="797" 
d="M178 1359h354v-246h201v-262h-201v-475q0 -117 129 -117q37 0 72 5v-252q-61 -14 -156 -14q-214 0 -306.5 71.5t-92.5 235.5v546h-149v262h149v246z" />
    <glyph glyph-name="u" unicode="u" horiz-adv-x="1256" 
d="M1167 1113v-1113h-345v210h-7q-79 -229 -324 -229q-183 0 -295 112t-112 306v714h354v-636q0 -100 49 -153.5t137 -53.5q86 0 137 59t51 156v628h355z" />
    <glyph glyph-name="v" unicode="v" horiz-adv-x="1150" 
d="M1151 1113l-370 -1113h-408l-375 1113h381l199 -814h7l196 814h370z" />
    <glyph glyph-name="w" unicode="w" horiz-adv-x="1729" 
d="M1714 1113l-288 -1113h-382l-179 755h-7l-178 -755h-376l-289 1113h357l145 -791h7l174 791h338l176 -791h7l145 791h350z" />
    <glyph glyph-name="x" unicode="x" horiz-adv-x="1163" 
d="M575 369h-7l-183 -369h-368l336 554l-336 559h401l170 -359h7l169 359h383l-336 -552l335 -561h-384z" />
    <glyph glyph-name="y" unicode="y" horiz-adv-x="1194" 
d="M254 -407q-119 0 -129 2v268q5 -1 62 -1q176 0 194 98l5 31l-380 1122h391l205 -845h7l205 845h374l-358 -1111q-71 -222 -203.5 -315.5t-372.5 -93.5z" />
    <glyph glyph-name="z" unicode="z" horiz-adv-x="1095" 
d="M68 0v189l529 651v7h-516v266h929v-217l-482 -623v-7h499v-266h-959z" />
    <glyph glyph-name="braceleft" unicode="{" horiz-adv-x="891" 
d="M387 591q109 -9 165.5 -73.5t56.5 -180.5v-230q0 -116 42 -157t162 -41h45v-249h-128q-246 0 -353 92t-107 305v191q0 116 -35 160.5t-127 44.5v310q91 0 126.5 45.5t35.5 161.5v158q0 209 106.5 298.5t353.5 89.5h128v-250h-45q-121 0 -162.5 -40.5t-41.5 -157.5v-213
q0 -110 -53 -165.5t-169 -65.5v-33z" />
    <glyph glyph-name="bar" unicode="|" horiz-adv-x="686" 
d="M513 -275h-340v1718h340v-1718z" />
    <glyph glyph-name="braceright" unicode="}" horiz-adv-x="891" 
d="M506 591v33q-117 10 -171 65.5t-54 165.5v213q0 117 -41 157.5t-162 40.5h-44v250h129q247 0 352 -89.5t105 -298.5v-158q0 -116 36 -161.5t128 -45.5v-310q-92 0 -128 -44.5t-36 -160.5v-191q0 -214 -106 -305.5t-351 -91.5h-129v249h44q120 0 161.5 41t41.5 157v230
q0 115 57.5 180t167.5 74z" />
    <glyph glyph-name="asciitilde" unicode="~" horiz-adv-x="1178" 
d="M541 617q-41 41 -69 57t-61 16q-100 0 -103 -178h-264q-13 214 76.5 340t253.5 126q70 0 133.5 -31.5t133.5 -101.5q39 -40 66.5 -55.5t59.5 -15.5q100 0 103 178h263q13 -214 -76 -340t-253 -126q-69 0 -131 31t-132 100z" />
    <glyph glyph-name="nonbreakingspace" unicode="&#xa0;" horiz-adv-x="414" 
 />
    <glyph glyph-name="exclamdown" unicode="&#xa1;" horiz-adv-x="701" 
d="M169 -314l31 970h302l31 -970h-364zM351 805q-79 0 -134.5 52t-55.5 127t55.5 127t134.5 52q78 0 133.5 -52t55.5 -127t-55.5 -127t-133.5 -52z" />
    <glyph glyph-name="cent" unicode="&#xa2;" horiz-adv-x="1372" 
d="M1257 543q-13 -170 -127 -283t-294 -143v-189h-279v195q-203 42 -322.5 192t-119.5 376q0 223 120 372.5t322 191.5v196h279v-191q178 -31 294 -148.5t127 -285.5h-324q-14 77 -74 125t-143 48q-108 0 -177.5 -83t-69.5 -225q0 -145 69 -228.5t177 -83.5q87 0 145 43
t73 121h324z" />
    <glyph glyph-name="sterling" unicode="&#xa3;" horiz-adv-x="1372" 
d="M590 298h676v-298h-1156v274q135 15 217.5 101t82.5 213q0 12 -2 36h-292v240h218q-57 141 -57 234q0 183 151.5 283.5t428.5 100.5q91 0 191.5 -14.5t154.5 -35.5v-276q-54 22 -136 36t-157 14q-128 0 -198 -46.5t-70 -130.5q0 -65 37 -165h385v-240h-314v-11
q0 -94 -45.5 -178.5t-114.5 -126.5v-10z" />
    <glyph glyph-name="currency" unicode="&#xa4;" horiz-adv-x="1409" 
d="M486 645q0 -89 65 -154.5t154 -65.5t154 65.5t65 154.5t-65 155t-154 66t-154 -66t-65 -155zM1269 1012l-139 -139q57 -108 57 -228q0 -119 -57 -227l139 -140l-197 -198l-140 140q-108 -57 -227 -57t-227 57l-140 -140l-198 198l140 140q-57 108 -57 227q0 121 57 227
l-140 140l198 198l140 -140q106 57 227 57q119 0 227 -57l140 140z" />
    <glyph glyph-name="yen" unicode="&#xa5;" horiz-adv-x="1372" 
d="M1138 182h-268v-182h-367v182h-268v182h268v120h-268v182h181l-410 777h391l285 -595h11l282 595h391l-409 -777h181v-182h-268v-120h268v-182z" />
    <glyph glyph-name="brokenbar" unicode="&#xa6;" horiz-adv-x="686" 
d="M513 773h-340v670h340v-670zM513 -275h-340v670h340v-670z" />
    <glyph glyph-name="section" unicode="&#xa7;" horiz-adv-x="997" 
d="M453 475l122 -46q42 12 70 46t28 72q0 41 -33.5 74.5t-92.5 52.5l-123 47q-41 -13 -69.5 -47t-28.5 -71q0 -41 33.5 -75t93.5 -53zM494 -297q-194 0 -318.5 96t-131.5 251h294q6 -49 50 -80.5t108 -31.5t104.5 31.5t40.5 82.5q0 37 -29 62.5t-94 47.5l-194 68
q-155 55 -224 127t-69 181q0 93 57 165t155 104v19q-106 52 -152 116t-46 159q0 157 124.5 251.5t332.5 94.5q194 0 317 -94.5t131 -250.5h-293q-6 49 -49.5 79.5t-105.5 30.5q-64 0 -104 -31.5t-40 -82.5q0 -36 28 -61t95 -49l186 -69q159 -58 229 -129.5t70 -175.5
q0 -95 -59.5 -169.5t-159.5 -104.5v-19q110 -50 158.5 -113.5t48.5 -157.5q0 -157 -125.5 -252t-334.5 -95z" />
    <glyph glyph-name="dieresis" unicode="&#xa8;" horiz-adv-x="1013" 
d="M290 1257q-62 0 -104.5 41.5t-42.5 99.5q0 59 42 100t105 41t105.5 -41t42.5 -100q0 -58 -42.5 -99.5t-105.5 -41.5zM723 1257q-63 0 -105 41t-42 100t42 100t105 41t105 -41t42 -100t-42 -100t-105 -41z" />
    <glyph glyph-name="copyright" unicode="&#xa9;" horiz-adv-x="1692" 
d="M846 -124q-160 0 -305.5 62t-251 167.5t-167.5 251t-62 306.5t62 306.5t167.5 250.5t251 167t305.5 62q214 0 395 -105t286 -286t105 -395q0 -161 -62 -306.5t-167.5 -251t-251 -167.5t-305.5 -62zM846 52q125 0 237.5 48t194.5 129.5t130 195t48 238.5
q0 167 -81.5 307.5t-222 221.5t-306.5 81q-124 0 -237 -48t-194.5 -129t-130 -194.5t-48.5 -238.5t48.5 -238.5t130 -195t194.5 -129.5t237 -48zM1207 756h-214q-8 52 -42.5 83t-87.5 31q-68 0 -106 -54.5t-38 -151.5q0 -100 37.5 -154t106.5 -54q53 0 87.5 28t42.5 79h214
q-11 -132 -103.5 -209t-242.5 -77q-174 0 -274.5 103.5t-100.5 283.5q0 178 100.5 281.5t272.5 103.5q149 0 243 -80.5t105 -212.5z" />
    <glyph glyph-name="ordfeminine" unicode="&#xaa;" horiz-adv-x="834" 
d="M386 874q50 0 83.5 25t33.5 63v48l-117 -8q-38 -3 -59 -20t-21 -45t22 -45.5t58 -17.5zM282 688q-107 0 -178.5 65.5t-71.5 162.5q0 105 78.5 164t230.5 68l162 10v36q0 35 -23.5 55.5t-64.5 20.5q-40 0 -66.5 -19t-30.5 -49h-248q5 121 101.5 190.5t257.5 69.5
q155 0 250 -70t95 -184v-509h-271v100h-6q-27 -51 -85.5 -81t-129.5 -30z" />
    <glyph glyph-name="guillemotleft" unicode="&#xab;" horiz-adv-x="1384" 
d="M939 571v-8l344 -410h-313l-341 409v8l348 409h306zM411 571v-8l344 -410h-314l-340 409v8l347 409h307z" />
    <glyph glyph-name="logicalnot" unicode="&#xac;" horiz-adv-x="1372" 
d="M1234 737v-703h-312v402h-784v301h1096z" />
    <glyph glyph-name="registered" unicode="&#xae;" horiz-adv-x="1188" 
d="M594 550q-146 0 -266.5 68.5t-189.5 188t-69 265.5t69 265.5t189.5 188t266.5 68.5t266.5 -68.5t189 -188t68.5 -265.5t-68.5 -265.5t-189 -188t-266.5 -68.5zM594 694q160 0 265.5 107.5t105.5 270.5t-105.5 270.5t-265.5 107.5t-265.5 -107.5t-105.5 -270.5
t105.5 -270.5t265.5 -107.5zM523 842h-139v471h254q81 0 130.5 -42t49.5 -112q0 -52 -25.5 -90.5t-69.5 -52.5l119 -174h-163l-98 154h-58v-154zM523 1205v-110h82q67 0 67 54q0 56 -65 56h-84z" />
    <glyph glyph-name="macron" unicode="&#xaf;" horiz-adv-x="1000" 
d="M844 1449v-163h-688v163h688z" />
    <glyph glyph-name="degree" unicode="&#xb0;" horiz-adv-x="761" 
d="M381 770q-143 0 -239.5 96.5t-96.5 239.5t96 239t240 96q143 0 239.5 -96t96.5 -239t-96.5 -239.5t-239.5 -96.5zM381 964q58 0 97.5 42t39.5 100q0 59 -39.5 100t-97.5 41q-56 0 -97 -41.5t-41 -99.5q0 -57 41 -99.5t97 -42.5z" />
    <glyph glyph-name="plusminus" unicode="&#xb1;" horiz-adv-x="1372" 
d="M1177 55h-985v255h985v-255zM837 645v-212h-302v212h-343v258h343v213h302v-213h343v-258h-343z" />
    <glyph glyph-name="two.sups" unicode="&#xb2;" horiz-adv-x="695" 
d="M24 1559q0 118 85.5 186.5t231.5 68.5q137 0 220.5 -59.5t83.5 -157.5q0 -59 -29 -106t-99 -103l-136 -108v-5h271v-196h-613v177l304 248q44 38 44 69q0 23 -16 36.5t-43 13.5t-45 -18t-18 -46v-6h-241v6z" />
    <glyph glyph-name="three.sups" unicode="&#xb3;" horiz-adv-x="723" 
d="M268 1358v165h88q28 0 46 14.5t18 35.5q0 24 -18 38t-49 14t-51 -18.5t-21 -47.5h-236q-3 116 82 185.5t230 69.5q138 0 222.5 -55.5t84.5 -146.5q0 -60 -41.5 -104.5t-108.5 -55.5v-6q81 -10 126.5 -55t45.5 -113q0 -103 -88.5 -163t-241.5 -60q-141 0 -229.5 71
t-94.5 187h253q1 -25 20 -39.5t49 -14.5t48 13.5t18 35.5q0 23 -18 36.5t-50 13.5h-84z" />
    <glyph glyph-name="acute" unicode="&#xb4;" horiz-adv-x="1013" 
d="M512 1269h-275l227 316h312z" />
    <glyph glyph-name="paragraph" unicode="&#xb6;" horiz-adv-x="1616" 
d="M988 -273h-333v665h-20q-236 0 -393 151.5t-157 371.5q0 229 153 378.5t398 149.5h352v-1716zM1168 -273v1716h333v-1716h-333z" />
    <glyph glyph-name="periodcentered" unicode="&#xb7;" horiz-adv-x="691" 
d="M345 456q-77 0 -131 54.5t-54 131.5t54 131.5t131 54.5q78 0 132 -54.5t54 -131.5t-54 -131.5t-132 -54.5z" />
    <glyph glyph-name="cedilla" unicode="&#xb8;" horiz-adv-x="1013" 
d="M380 -226v114l63 126l164 -14l-48 -102q80 0 126.5 -43.5t46.5 -119.5q0 -92 -65 -141.5t-187 -49.5q-90 0 -137 15v131q36 -12 105 -12q100 0 100 45q0 28 -25 39.5t-87 11.5h-56z" />
    <glyph glyph-name="one.sups" unicode="&#xb9;" horiz-adv-x="579" 
d="M219 1079v493h-5l-168 -107v215l172 111h269v-712h-268z" />
    <glyph glyph-name="ordmasculine" unicode="&#xba;" horiz-adv-x="864" 
d="M432 680q-184 0 -288 102.5t-104 289.5q0 182 105.5 286t286.5 104t286.5 -103.5t105.5 -286.5q0 -188 -103.5 -290t-288.5 -102zM432 878q51 0 80.5 50.5t29.5 142.5q0 90 -29.5 141.5t-80.5 51.5q-50 0 -79.5 -51.5t-29.5 -141.5q0 -92 29 -142.5t80 -50.5z" />
    <glyph glyph-name="guillemotright" unicode="&#xbb;" horiz-adv-x="1384" 
d="M445 571l-344 408h306l348 -409v-8l-341 -409h-313l344 410v8zM973 571l-344 408h306l348 -409v-8l-341 -409h-313l344 410v8z" />
    <glyph glyph-name="onequarter" unicode="&#xbc;" horiz-adv-x="1710" 
d="M1342 0v85h-347v218q85 172 232 409h366v-427h77v-200h-77v-85h-251zM1208 277v-5h143v273h-6q-62 -114 -137 -268zM229 735v493h-5l-168 -107v215l172 111h269v-712h-268zM427 0h-301l1052 1443h300z" />
    <glyph glyph-name="onehalf" unicode="&#xbd;" horiz-adv-x="1706" 
d="M1040 480q0 118 85.5 186.5t231.5 68.5q137 0 220.5 -59.5t83.5 -157.5q0 -59 -29 -106t-99 -103l-136 -108v-5h271v-196h-613v177l304 248q44 39 44 69q0 23 -16 36.5t-43 13.5t-45 -18t-18 -46v-6h-241v6zM229 735v493h-5l-168 -107v215l172 111h269v-712h-268zM427 0
h-301l1052 1443h300z" />
    <glyph glyph-name="threequarters" unicode="&#xbe;" horiz-adv-x="1790" 
d="M268 1014v165h88q28 0 46 14.5t18 35.5q0 24 -18 38t-49 14t-51 -18.5t-21 -47.5h-236q-3 116 82 185.5t230 69.5q138 0 222.5 -55.5t84.5 -146.5q0 -60 -41.5 -104.5t-108.5 -55.5v-6q81 -10 126.5 -55t45.5 -113q0 -103 -88.5 -163t-241.5 -60q-141 0 -229.5 71
t-94.5 187h253q1 -25 20 -39.5t49 -14.5t48 13.5t18 35.5q0 23 -18 36.5t-50 13.5h-84zM1421 0v85h-347v218q85 172 232 409h366v-427h77v-200h-77v-85h-251zM1287 277v-5h143v273h-6q-62 -114 -137 -268zM529 0h-301l1052 1443h300z" />
    <glyph glyph-name="questiondown" unicode="&#xbf;" horiz-adv-x="1141" 
d="M1090 105q-2 -198 -139 -315.5t-374 -117.5q-228 0 -365 110t-137 291q0 109 52.5 189.5t163.5 144.5q103 60 138.5 104t35.5 114v47h312l2 -40q15 -126 -24 -202.5t-145 -138.5q-102 -59 -136.5 -101.5t-34.5 -107.5q0 -61 45 -99t117 -38q71 0 116 44t47 116h326z
M612 805q-78 0 -133.5 52t-55.5 127t55.5 127t133.5 52q79 0 134.5 -52t55.5 -127t-56 -127t-134 -52z" />
    <glyph glyph-name="Agrave" unicode="&#xc0;" horiz-adv-x="1477" 
d="M1058 0l-91 317h-472l-92 -317h-374l485 1443h449l485 -1443h-390zM727 1137l-161 -556h329l-160 556h-8zM609 1561l-276 316h313l232 -316h-269z" />
    <glyph glyph-name="Aacute" unicode="&#xc1;" horiz-adv-x="1477" 
d="M1058 0l-91 317h-472l-92 -317h-374l485 1443h449l485 -1443h-390zM727 1137l-161 -556h329l-160 556h-8zM863 1554h-269l232 316h313z" />
    <glyph glyph-name="Acircumflex" unicode="&#xc2;" horiz-adv-x="1477" 
d="M1058 0l-91 317h-472l-92 -317h-374l485 1443h449l485 -1443h-390zM727 1137l-161 -556h329l-160 556h-8zM601 1867h274l263 -328h-250l-147 194h-6l-147 -194h-250z" />
    <glyph glyph-name="Atilde" unicode="&#xc3;" horiz-adv-x="1477" 
d="M1058 0l-91 317h-472l-92 -317h-374l485 1443h449l485 -1443h-390zM727 1137l-161 -556h329l-160 556h-8zM885 1543q-48 0 -90.5 20t-67.5 43.5t-53.5 43.5t-51.5 20q-33 0 -50 -30.5t-19 -79.5h-181q0 131 67 207t167 76q49 0 92 -20t68.5 -43.5t53.5 -43.5t51 -20
q64 0 67 114h181q0 -130 -67.5 -208.5t-166.5 -78.5z" />
    <glyph glyph-name="Adieresis" unicode="&#xc4;" horiz-adv-x="1477" 
d="M1058 0l-91 317h-472l-92 -317h-374l485 1443h449l485 -1443h-390zM727 1137l-161 -556h329l-160 556h-8zM521 1547q-62 0 -104.5 41.5t-42.5 99.5q0 59 42 100t105 41t105.5 -41t42.5 -100q0 -58 -42.5 -99.5t-105.5 -41.5zM954 1547q-63 0 -105 41t-42 100t42 100
t105 41t105 -41t42 -100t-42 -100t-105 -41z" />
    <glyph glyph-name="Aring" unicode="&#xc5;" horiz-adv-x="1477" 
d="M1058 0l-91 317h-472l-92 -317h-374l485 1443h449l485 -1443h-390zM727 1137l-161 -556h329l-160 556h-8zM738 1517q-88 0 -151.5 62t-63.5 147q0 87 63.5 148.5t151.5 61.5t151 -61.5t63 -148.5q0 -86 -63 -147.5t-151 -61.5zM738 1640q36 0 62 25.5t26 60.5
q0 36 -26 61.5t-62 25.5t-62 -25.5t-26 -61.5q0 -35 26 -60.5t62 -25.5z" />
    <glyph glyph-name="AE" unicode="&#xc6;" horiz-adv-x="2073" 
d="M845 1167l-220 -575h343v575h-123zM968 0v327h-439l-127 -327h-363l575 1443h1336v-295h-655v-290h618v-270h-618v-293h655v-295h-982z" />
    <glyph glyph-name="Ccedilla" unicode="&#xc7;" horiz-adv-x="1488" 
d="M1072 544h353q-12 -238 -170 -391t-409 -175l-38 -80q80 0 126.5 -43.5t46.5 -119.5q0 -92 -65 -141.5t-187 -49.5q-91 0 -137 15v131q36 -12 105 -12q100 0 100 45q0 28 -25 39.5t-87 11.5h-56v114l46 92q-284 29 -445 223t-161 519q0 351 188 548.5t513 197.5
q181 0 328 -72.5t233.5 -204t91.5 -299.5h-353q-13 127 -96 204.5t-204 77.5q-151 0 -239 -121t-88 -330q0 -212 88 -333t240 -121q121 0 202.5 74t98.5 201z" />
    <glyph glyph-name="Egrave" unicode="&#xc8;" horiz-adv-x="1196" 
d="M474 1561l-276 316h313l232 -316h-269zM1098 296v-296h-989v1443h989v-296h-622v-287h585v-270h-585v-294h622z" />
    <glyph glyph-name="Eacute" unicode="&#xc9;" horiz-adv-x="1196" 
d="M728 1554h-269l232 316h313zM1098 296v-296h-989v1443h989v-296h-622v-287h585v-270h-585v-294h622z" />
    <glyph glyph-name="Ecircumflex" unicode="&#xca;" horiz-adv-x="1196" 
d="M466 1867h274l263 -328h-250l-147 194h-6l-147 -194h-250zM1098 296v-296h-989v1443h989v-296h-622v-287h585v-270h-585v-294h622z" />
    <glyph glyph-name="Edieresis" unicode="&#xcb;" horiz-adv-x="1196" 
d="M386 1547q-62 0 -104.5 41.5t-42.5 99.5q0 59 42 100t105 41t105.5 -41t42.5 -100q0 -58 -42.5 -99.5t-105.5 -41.5zM819 1547q-63 0 -105 41t-42 100t42 100t105 41t105 -41t42 -100t-42 -100t-105 -41zM1098 296v-296h-989v1443h989v-296h-622v-287h585v-270h-585v-294
h622z" />
    <glyph glyph-name="Igrave" unicode="&#xcc;" horiz-adv-x="585" 
d="M476 0h-367v1443h367v-1443zM164 1561l-276 316h313l232 -316h-269z" />
    <glyph glyph-name="Iacute" unicode="&#xcd;" horiz-adv-x="585" 
d="M476 0h-367v1443h367v-1443zM418 1554h-269l232 316h313z" />
    <glyph glyph-name="Icircumflex" unicode="&#xce;" horiz-adv-x="585" 
d="M476 0h-367v1443h367v-1443zM156 1867h274l263 -328h-250l-147 194h-6l-147 -194h-250z" />
    <glyph glyph-name="Idieresis" unicode="&#xcf;" horiz-adv-x="585" 
d="M476 0h-367v1443h367v-1443zM76 1547q-62 0 -104.5 41.5t-42.5 99.5q0 59 42 100t105 41t105.5 -41t42.5 -100q0 -58 -42.5 -99.5t-105.5 -41.5zM509 1547q-63 0 -105 41t-42 100t42 100t105 41t105 -41t42 -100t-42 -100t-105 -41z" />
    <glyph glyph-name="Eth" unicode="&#xd0;" horiz-adv-x="1482" 
d="M499 296h173q180 0 273.5 109t93.5 324q0 202 -96 310t-271 108h-173v-295h243v-252h-243v-304zM132 1443h589q328 0 509.5 -185t181.5 -528q0 -345 -182 -537.5t-509 -192.5h-589v600h-80v252h80v591z" />
    <glyph glyph-name="Ntilde" unicode="&#xd1;" horiz-adv-x="1479" 
d="M887 1543q-48 0 -90.5 20t-67.5 43.5t-53.5 43.5t-51.5 20q-33 0 -50 -30.5t-19 -79.5h-181q0 131 67 207t167 76q49 0 92 -20t68.5 -43.5t53.5 -43.5t51 -20q64 0 67 114h181q0 -130 -67.5 -208.5t-166.5 -78.5zM457 0h-348v1443h293l612 -839h8v839h348v-1443h-290
l-615 847h-8v-847z" />
    <glyph glyph-name="Ograve" unicode="&#xd2;" horiz-adv-x="1564" 
d="M653 1561l-276 316h313l232 -316h-269zM782 1468q328 0 520 -201t192 -546t-192 -545.5t-520 -200.5q-329 0 -521 200.5t-192 545.5t192.5 546t520.5 201zM782 1170q-154 0 -246.5 -121.5t-92.5 -327.5q0 -205 92 -326.5t247 -121.5q154 0 246.5 121.5t92.5 326.5
q0 206 -92.5 327.5t-246.5 121.5z" />
    <glyph glyph-name="Oacute" unicode="&#xd3;" horiz-adv-x="1564" 
d="M907 1554h-269l232 316h313zM782 1468q328 0 520 -201t192 -546t-192 -545.5t-520 -200.5q-329 0 -521 200.5t-192 545.5t192.5 546t520.5 201zM782 1170q-154 0 -246.5 -121.5t-92.5 -327.5q0 -205 92 -326.5t247 -121.5q154 0 246.5 121.5t92.5 326.5
q0 206 -92.5 327.5t-246.5 121.5z" />
    <glyph glyph-name="Ocircumflex" unicode="&#xd4;" horiz-adv-x="1564" 
d="M645 1867h274l263 -328h-250l-147 194h-6l-147 -194h-250zM782 1468q328 0 520 -201t192 -546t-192 -545.5t-520 -200.5q-329 0 -521 200.5t-192 545.5t192.5 546t520.5 201zM782 1170q-154 0 -246.5 -121.5t-92.5 -327.5q0 -205 92 -326.5t247 -121.5q154 0 246.5 121.5
t92.5 326.5q0 206 -92.5 327.5t-246.5 121.5z" />
    <glyph glyph-name="Otilde" unicode="&#xd5;" horiz-adv-x="1564" 
d="M782 1468q328 0 520 -201t192 -546t-192 -545.5t-520 -200.5q-329 0 -521 200.5t-192 545.5t192.5 546t520.5 201zM782 1170q-154 0 -246.5 -121.5t-92.5 -327.5q0 -205 92 -326.5t247 -121.5q154 0 246.5 121.5t92.5 326.5q0 206 -92.5 327.5t-246.5 121.5zM929 1543
q-48 0 -90.5 20t-67.5 43.5t-53.5 43.5t-51.5 20q-33 0 -50 -30.5t-19 -79.5h-181q0 131 67 207t167 76q49 0 92 -20t68.5 -43.5t53.5 -43.5t51 -20q64 0 67 114h181q0 -130 -67.5 -208.5t-166.5 -78.5z" />
    <glyph glyph-name="Odieresis" unicode="&#xd6;" horiz-adv-x="1564" 
d="M565 1547q-62 0 -104.5 41.5t-42.5 99.5q0 59 42 100t105 41t105.5 -41t42.5 -100q0 -58 -42.5 -99.5t-105.5 -41.5zM998 1547q-63 0 -105 41t-42 100t42 100t105 41t105 -41t42 -100t-42 -100t-105 -41zM782 1468q328 0 520 -201t192 -546t-192 -545.5t-520 -200.5
q-329 0 -521 200.5t-192 545.5t192.5 546t520.5 201zM782 1170q-154 0 -246.5 -121.5t-92.5 -327.5q0 -205 92 -326.5t247 -121.5q154 0 246.5 121.5t92.5 326.5q0 206 -92.5 327.5t-246.5 121.5z" />
    <glyph glyph-name="multiply" unicode="&#xd7;" horiz-adv-x="1373" 
d="M686 373l-302 -302l-213 212l303 303l-303 303l213 212l302 -302l303 302l212 -212l-302 -303l302 -303l-212 -212z" />
    <glyph glyph-name="Oslash" unicode="&#xd8;" horiz-adv-x="1564" 
d="M1055 1008l-427 -696q70 -39 154 -39q154 0 246.5 121.5t92.5 326.5q0 171 -66 287zM535 394l436 714q-81 62 -189 62q-154 0 -246.5 -121.5t-92.5 -327.5q0 -205 92 -327zM1332 1459l-86 -140q120 -98 184 -250.5t64 -347.5q0 -345 -192 -545.5t-520 -200.5
q-179 0 -323 63l-70 -115l-103 62l68 111q-137 95 -211 255.5t-74 369.5q0 345 192.5 546t520.5 201q205 0 359 -81l78 128z" />
    <glyph glyph-name="Ugrave" unicode="&#xd9;" horiz-adv-x="1461" 
d="M602 1561l-276 316h313l232 -316h-269zM476 1443v-892q0 -127 66.5 -197.5t188.5 -70.5t188 70.5t66 197.5v892h367v-931q0 -243 -170 -390t-451 -147q-282 0 -452 147t-170 390v931h367z" />
    <glyph glyph-name="Uacute" unicode="&#xda;" horiz-adv-x="1461" 
d="M856 1554h-269l232 316h313zM476 1443v-892q0 -127 66.5 -197.5t188.5 -70.5t188 70.5t66 197.5v892h367v-931q0 -243 -170 -390t-451 -147q-282 0 -452 147t-170 390v931h367z" />
    <glyph glyph-name="Ucircumflex" unicode="&#xdb;" horiz-adv-x="1461" 
d="M594 1867h274l263 -328h-250l-147 194h-6l-147 -194h-250zM476 1443v-892q0 -127 66.5 -197.5t188.5 -70.5t188 70.5t66 197.5v892h367v-931q0 -243 -170 -390t-451 -147q-282 0 -452 147t-170 390v931h367z" />
    <glyph glyph-name="Udieresis" unicode="&#xdc;" horiz-adv-x="1461" 
d="M514 1547q-62 0 -104.5 41.5t-42.5 99.5q0 59 42 100t105 41t105.5 -41t42.5 -100q0 -58 -42.5 -99.5t-105.5 -41.5zM947 1547q-63 0 -105 41t-42 100t42 100t105 41t105 -41t42 -100t-42 -100t-105 -41zM476 1443v-892q0 -127 66.5 -197.5t188.5 -70.5t188 70.5
t66 197.5v892h367v-931q0 -243 -170 -390t-451 -147q-282 0 -452 147t-170 390v931h367z" />
    <glyph glyph-name="Yacute" unicode="&#xdd;" horiz-adv-x="1419" 
d="M893 0h-367v496l-497 947h394l287 -600h7l286 600h387l-497 -947v-496zM835 1554h-269l232 316h313z" />
    <glyph glyph-name="Thorn" unicode="&#xde;" horiz-adv-x="1382" 
d="M146 1443h369v-219h273q227 0 364.5 -129.5t137.5 -350.5q0 -219 -144 -348.5t-381 -129.5h-252v-266h-367v1443zM513 942v-398h174q111 0 171.5 51t60.5 149q0 96 -60 147t-169 51h-177z" />
    <glyph glyph-name="germandbls" unicode="&#xdf;" horiz-adv-x="1424" 
d="M484 0h-354v1070q0 187 146 296t397 109q238 0 387 -105t149 -273q0 -119 -58 -206.5t-155 -113.5v-16q151 -9 243 -109t92 -255q0 -191 -134 -302t-366 -111q-124 0 -201 17v276q54 -19 127 -19q101 0 156.5 43t55.5 121q0 79 -63.5 124t-175.5 45h-78v274h49
q75 0 120 44.5t45 119.5q0 77 -50.5 122t-136.5 45q-96 0 -145.5 -52t-49.5 -153v-991z" />
    <glyph glyph-name="agrave" unicode="&#xe0;" horiz-adv-x="1191" 
d="M546 231q88 0 149.5 47.5t61.5 122.5v77l-205 -14q-75 -5 -115.5 -36t-40.5 -82q0 -53 40.5 -84t109.5 -31zM421 -15q-159 0 -267.5 94.5t-108.5 242.5q0 155 115.5 241t335.5 100l261 16v64q0 67 -44.5 103.5t-120.5 36.5q-71 0 -117 -33.5t-54 -86.5h-319
q7 169 144.5 271.5t362.5 102.5q222 0 358 -103.5t136 -271.5v-762h-344v160h-7q-44 -82 -135.5 -128.5t-195.5 -46.5zM753 1269h-275l-264 316h312z" />
    <glyph glyph-name="aacute" unicode="&#xe1;" horiz-adv-x="1191" 
d="M546 231q88 0 149.5 47.5t61.5 122.5v77l-205 -14q-75 -5 -115.5 -36t-40.5 -82q0 -53 40.5 -84t109.5 -31zM421 -15q-159 0 -267.5 94.5t-108.5 242.5q0 155 115.5 241t335.5 100l261 16v64q0 67 -44.5 103.5t-120.5 36.5q-71 0 -117 -33.5t-54 -86.5h-319
q7 169 144.5 271.5t362.5 102.5q222 0 358 -103.5t136 -271.5v-762h-344v160h-7q-44 -82 -135.5 -128.5t-195.5 -46.5zM736 1269h-275l227 316h312z" />
    <glyph glyph-name="acircumflex" unicode="&#xe2;" horiz-adv-x="1191" 
d="M546 231q88 0 149.5 47.5t61.5 122.5v77l-205 -14q-75 -5 -115.5 -36t-40.5 -82q0 -53 40.5 -84t109.5 -31zM421 -15q-159 0 -267.5 94.5t-108.5 242.5q0 155 115.5 241t335.5 100l261 16v64q0 67 -44.5 103.5t-120.5 36.5q-71 0 -117 -33.5t-54 -86.5h-319
q7 169 144.5 271.5t362.5 102.5q222 0 358 -103.5t136 -271.5v-762h-344v160h-7q-44 -82 -135.5 -128.5t-195.5 -46.5zM739 1582l261 -327h-256l-135 184h-8l-136 -184h-255l260 327h269z" />
    <glyph glyph-name="atilde" unicode="&#xe3;" horiz-adv-x="1191" 
d="M546 231q88 0 149.5 47.5t61.5 122.5v77l-205 -14q-75 -5 -115.5 -36t-40.5 -82q0 -53 40.5 -84t109.5 -31zM421 -15q-159 0 -267.5 94.5t-108.5 242.5q0 155 115.5 241t335.5 100l261 16v64q0 67 -44.5 103.5t-120.5 36.5q-71 0 -117 -33.5t-54 -86.5h-319
q7 169 144.5 271.5t362.5 102.5q222 0 358 -103.5t136 -271.5v-762h-344v160h-7q-44 -82 -135.5 -128.5t-195.5 -46.5zM753 1258q-48 0 -90.5 20t-67.5 43.5t-53.5 43.5t-51.5 20q-33 0 -50 -30.5t-19 -79.5h-181q0 131 67 207t167 76q49 0 92 -20t68.5 -43.5t53.5 -43.5
t51 -20q64 0 67 114h181q0 -130 -67.5 -208.5t-166.5 -78.5z" />
    <glyph glyph-name="adieresis" unicode="&#xe4;" horiz-adv-x="1191" 
d="M546 231q88 0 149.5 47.5t61.5 122.5v77l-205 -14q-75 -5 -115.5 -36t-40.5 -82q0 -53 40.5 -84t109.5 -31zM421 -15q-159 0 -267.5 94.5t-108.5 242.5q0 155 115.5 241t335.5 100l261 16v64q0 67 -44.5 103.5t-120.5 36.5q-71 0 -117 -33.5t-54 -86.5h-319
q7 169 144.5 271.5t362.5 102.5q222 0 358 -103.5t136 -271.5v-762h-344v160h-7q-44 -82 -135.5 -128.5t-195.5 -46.5zM388 1257q-62 0 -104.5 41.5t-42.5 99.5q0 59 42 100t105 41t105.5 -41t42.5 -100q0 -58 -42.5 -99.5t-105.5 -41.5zM821 1257q-63 0 -105 41t-42 100
t42 100t105 41t105 -41t42 -100t-42 -100t-105 -41z" />
    <glyph glyph-name="aring" unicode="&#xe5;" horiz-adv-x="1191" 
d="M546 231q88 0 149.5 47.5t61.5 122.5v77l-205 -14q-75 -5 -115.5 -36t-40.5 -82q0 -53 40.5 -84t109.5 -31zM421 -15q-159 0 -267.5 94.5t-108.5 242.5q0 155 115.5 241t335.5 100l261 16v64q0 67 -44.5 103.5t-120.5 36.5q-71 0 -117 -33.5t-54 -86.5h-319
q7 169 144.5 271.5t362.5 102.5q222 0 358 -103.5t136 -271.5v-762h-344v160h-7q-44 -82 -135.5 -128.5t-195.5 -46.5zM605 1223q-95 0 -164.5 67t-69.5 160t69 160t165 67q95 0 163.5 -67t68.5 -160t-68.5 -160t-163.5 -67zM605 1358q38 0 66 27.5t28 64.5q0 38 -28 65.5
t-66 27.5t-66.5 -27.5t-28.5 -65.5q0 -37 28.5 -64.5t66.5 -27.5z" />
    <glyph glyph-name="ae" unicode="&#xe6;" horiz-adv-x="1883" 
d="M1299 -24q-140 0 -249 53t-163 145h-9q-55 -90 -157 -139.5t-242 -49.5q-200 0 -317 92.5t-117 243.5q0 154 115 241t335 100l261 15v55q0 65 -49 108t-124 43q-72 0 -122.5 -33.5t-56.5 -86.5h-312q7 170 140.5 272t342.5 102q127 0 221.5 -39t143.5 -105h9
q117 144 361 144q234 0 376.5 -150t142.5 -407v-101h-749v-22q0 -102 62 -165.5t162 -63.5q73 0 126 32.5t72 89.5h320q-26 -171 -167 -272.5t-356 -101.5zM1292 885q-85 0 -142.5 -56.5t-64.5 -146.5h409q-4 93 -59.5 148t-142.5 55zM538 224q90 0 154 52.5t64 124.5v75
l-217 -15q-75 -6 -118 -36.5t-43 -81.5q0 -52 46 -85.5t114 -33.5z" />
    <glyph glyph-name="ccedilla" unicode="&#xe7;" horiz-adv-x="1185" 
d="M813 429h326q-7 -192 -127 -311t-322 -139l-38 -81q80 0 126.5 -43.5t46.5 -119.5q0 -92 -65 -141.5t-187 -49.5q-90 0 -137 15v131q36 -12 105 -12q100 0 100 45q0 28 -25 39.5t-87 11.5h-56v114l47 94q-219 29 -342.5 180t-123.5 395q0 268 151 424t410 156
q232 0 373.5 -126t149.5 -334h-325q-9 87 -60.5 138.5t-131.5 51.5q-98 0 -153.5 -81.5t-55.5 -228.5q0 -149 55 -229.5t154 -80.5q81 0 131.5 47.5t60.5 134.5z" />
    <glyph glyph-name="egrave" unicode="&#xe8;" horiz-adv-x="1205" 
d="M753 1269h-275l-264 316h312zM611 885q-85 0 -143 -57t-65 -146h414q-5 92 -61.5 147.5t-144.5 55.5zM825 350h320q-26 -171 -168.5 -272.5t-358.5 -101.5q-264 0 -414 153t-150 422t149 427.5t403 158.5q249 0 397.5 -151.5t148.5 -405.5v-101h-753v-22
q0 -102 62 -165.5t162 -63.5q74 0 128 32.5t74 89.5z" />
    <glyph glyph-name="eacute" unicode="&#xe9;" horiz-adv-x="1205" 
d="M736 1269h-275l227 316h312zM611 885q-85 0 -143 -57t-65 -146h414q-5 92 -61.5 147.5t-144.5 55.5zM825 350h320q-26 -171 -168.5 -272.5t-358.5 -101.5q-264 0 -414 153t-150 422t149 427.5t403 158.5q249 0 397.5 -151.5t148.5 -405.5v-101h-753v-22q0 -102 62 -165.5
t162 -63.5q74 0 128 32.5t74 89.5z" />
    <glyph glyph-name="ecircumflex" unicode="&#xea;" horiz-adv-x="1205" 
d="M739 1582l261 -327h-256l-135 184h-8l-136 -184h-255l260 327h269zM611 885q-85 0 -143 -57t-65 -146h414q-5 92 -61.5 147.5t-144.5 55.5zM825 350h320q-26 -171 -168.5 -272.5t-358.5 -101.5q-264 0 -414 153t-150 422t149 427.5t403 158.5q249 0 397.5 -151.5
t148.5 -405.5v-101h-753v-22q0 -102 62 -165.5t162 -63.5q74 0 128 32.5t74 89.5z" />
    <glyph glyph-name="edieresis" unicode="&#xeb;" horiz-adv-x="1205" 
d="M611 885q-85 0 -143 -57t-65 -146h414q-5 92 -61.5 147.5t-144.5 55.5zM825 350h320q-26 -171 -168.5 -272.5t-358.5 -101.5q-264 0 -414 153t-150 422t149 427.5t403 158.5q249 0 397.5 -151.5t148.5 -405.5v-101h-753v-22q0 -102 62 -165.5t162 -63.5q74 0 128 32.5
t74 89.5zM388 1257q-62 0 -104.5 41.5t-42.5 99.5q0 59 42 100t105 41t105.5 -41t42.5 -100q0 -58 -42.5 -99.5t-105.5 -41.5zM821 1257q-63 0 -105 41t-42 100t42 100t105 41t105 -41t42 -100t-42 -100t-105 -41z" />
    <glyph glyph-name="igrave" unicode="&#xec;" horiz-adv-x="537" 
d="M416 1269h-275l-264 316h312zM91 0v1113h355v-1113h-355z" />
    <glyph glyph-name="iacute" unicode="&#xed;" horiz-adv-x="537" 
d="M399 1269h-275l227 316h312zM91 0v1113h355v-1113h-355z" />
    <glyph glyph-name="icircumflex" unicode="&#xee;" horiz-adv-x="537" 
d="M402 1582l261 -327h-256l-135 184h-8l-136 -184h-255l260 327h269zM91 0v1113h355v-1113h-355z" />
    <glyph glyph-name="idieresis" unicode="&#xef;" horiz-adv-x="537" 
d="M91 0v1113h355v-1113h-355zM51 1257q-62 0 -104.5 41.5t-42.5 99.5q0 59 42 100t105 41t105.5 -41t42.5 -100q0 -58 -42.5 -99.5t-105.5 -41.5zM484 1257q-63 0 -105 41t-42 100t42 100t105 41t105 -41t42 -100t-42 -100t-105 -41z" />
    <glyph glyph-name="eth" unicode="&#xf0;" horiz-adv-x="1312" 
d="M644 -17q-253 0 -410 154t-157 406q0 230 131.5 369.5t334.5 139.5q80 0 148.5 -29t110.5 -80h19q-20 60 -67.5 130t-98.5 124l-288 -97l-66 155l226 76q-84 68 -263 181h446q55 -39 104 -84l273 92l70 -155l-202 -67q265 -295 265 -681q0 -290 -159 -462t-417 -172z
M654 819q-98 0 -156 -75t-58 -204t57.5 -204t156.5 -75q100 0 158 74.5t58 204.5q0 128 -58.5 203.5t-157.5 75.5z" />
    <glyph glyph-name="ntilde" unicode="&#xf1;" horiz-adv-x="1256" 
d="M777 1258q-48 0 -90.5 20t-67.5 43.5t-53.5 43.5t-51.5 20q-33 0 -50 -30.5t-19 -79.5h-181q0 131 67 207t167 76q49 0 92 -20t68.5 -43.5t53.5 -43.5t51 -20q64 0 67 114h181q0 -130 -67.5 -208.5t-166.5 -78.5zM89 0v1113h344v-209h7q92 228 345 228q185 0 286 -110.5
t101 -308.5v-713h-355v637q0 98 -46 152t-136 54q-89 0 -140.5 -59.5t-51.5 -155.5v-628h-354z" />
    <glyph glyph-name="ograve" unicode="&#xf2;" horiz-adv-x="1242" 
d="M769 1269h-275l-264 316h312zM621 -24q-265 0 -416 153.5t-151 427.5q0 269 153 424.5t414 155.5q262 0 414.5 -154.5t152.5 -425.5q0 -275 -151 -428t-416 -153zM621 237q98 0 153 83.5t55 236.5q0 149 -56 234t-152 85q-97 0 -152.5 -84.5t-55.5 -234.5
q0 -153 55 -236.5t153 -83.5z" />
    <glyph glyph-name="oacute" unicode="&#xf3;" horiz-adv-x="1242" 
d="M752 1269h-275l227 316h312zM621 -24q-265 0 -416 153.5t-151 427.5q0 269 153 424.5t414 155.5q262 0 414.5 -154.5t152.5 -425.5q0 -275 -151 -428t-416 -153zM621 237q98 0 153 83.5t55 236.5q0 149 -56 234t-152 85q-97 0 -152.5 -84.5t-55.5 -234.5
q0 -153 55 -236.5t153 -83.5z" />
    <glyph glyph-name="ocircumflex" unicode="&#xf4;" horiz-adv-x="1242" 
d="M755 1582l261 -327h-256l-135 184h-8l-136 -184h-255l260 327h269zM621 -24q-265 0 -416 153.5t-151 427.5q0 269 153 424.5t414 155.5q262 0 414.5 -154.5t152.5 -425.5q0 -275 -151 -428t-416 -153zM621 237q98 0 153 83.5t55 236.5q0 149 -56 234t-152 85
q-97 0 -152.5 -84.5t-55.5 -234.5q0 -153 55 -236.5t153 -83.5z" />
    <glyph glyph-name="otilde" unicode="&#xf5;" horiz-adv-x="1242" 
d="M769 1258q-48 0 -90.5 20t-67.5 43.5t-53.5 43.5t-51.5 20q-33 0 -50 -30.5t-19 -79.5h-181q0 131 67 207t167 76q49 0 92 -20t68.5 -43.5t53.5 -43.5t51 -20q64 0 67 114h181q0 -130 -67.5 -208.5t-166.5 -78.5zM621 -24q-265 0 -416 153.5t-151 427.5q0 269 153 424.5
t414 155.5q262 0 414.5 -154.5t152.5 -425.5q0 -275 -151 -428t-416 -153zM621 237q98 0 153 83.5t55 236.5q0 149 -56 234t-152 85q-97 0 -152.5 -84.5t-55.5 -234.5q0 -153 55 -236.5t153 -83.5z" />
    <glyph glyph-name="odieresis" unicode="&#xf6;" horiz-adv-x="1242" 
d="M404 1257q-62 0 -104.5 41.5t-42.5 99.5q0 59 42 100t105 41t105.5 -41t42.5 -100q0 -58 -42.5 -99.5t-105.5 -41.5zM837 1257q-63 0 -105 41t-42 100t42 100t105 41t105 -41t42 -100t-42 -100t-105 -41zM621 -24q-265 0 -416 153.5t-151 427.5q0 269 153 424.5
t414 155.5q262 0 414.5 -154.5t152.5 -425.5q0 -275 -151 -428t-416 -153zM621 237q98 0 153 83.5t55 236.5q0 149 -56 234t-152 85q-97 0 -152.5 -84.5t-55.5 -234.5q0 -153 55 -236.5t153 -83.5z" />
    <glyph glyph-name="divide" unicode="&#xf7;" horiz-adv-x="1372" 
d="M686 813q-85 0 -137 49t-52 128t52 127.5t137 48.5t137.5 -48.5t52.5 -127.5t-52.5 -128t-137.5 -49zM686 2q-85 0 -137 48.5t-52 127.5t52 127.5t137 48.5t137.5 -48.5t52.5 -127.5t-52.5 -127.5t-137.5 -48.5zM1242 456h-1112v255h1112v-255z" />
    <glyph glyph-name="oslash" unicode="&#xf8;" horiz-adv-x="1242" 
d="M804 727l-279 -464q41 -26 96 -26q98 0 153 83.5t55 236.5q0 97 -25 170zM445 365l285 474q-48 37 -109 37q-97 0 -152.5 -84.5t-55.5 -234.5q0 -116 32 -192zM1052 1137l-67 -110q203 -156 203 -470q0 -275 -151 -428t-416 -153q-137 0 -245 42l-63 -105l-103 61l60 100
q-216 152 -216 483q0 269 153 424.5t414 155.5q143 0 258 -49l64 106z" />
    <glyph glyph-name="ugrave" unicode="&#xf9;" horiz-adv-x="1256" 
d="M776 1269h-275l-264 316h312zM1167 1113v-1113h-345v210h-7q-79 -229 -324 -229q-183 0 -295 112t-112 306v714h354v-636q0 -100 49 -153.5t137 -53.5q86 0 137 59t51 156v628h355z" />
    <glyph glyph-name="uacute" unicode="&#xfa;" horiz-adv-x="1256" 
d="M759 1269h-275l227 316h312zM1167 1113v-1113h-345v210h-7q-79 -229 -324 -229q-183 0 -295 112t-112 306v714h354v-636q0 -100 49 -153.5t137 -53.5q86 0 137 59t51 156v628h355z" />
    <glyph glyph-name="ucircumflex" unicode="&#xfb;" horiz-adv-x="1256" 
d="M762 1582l261 -327h-256l-135 184h-8l-136 -184h-255l260 327h269zM1167 1113v-1113h-345v210h-7q-79 -229 -324 -229q-183 0 -295 112t-112 306v714h354v-636q0 -100 49 -153.5t137 -53.5q86 0 137 59t51 156v628h355z" />
    <glyph glyph-name="udieresis" unicode="&#xfc;" horiz-adv-x="1256" 
d="M1167 1113v-1113h-345v210h-7q-79 -229 -324 -229q-183 0 -295 112t-112 306v714h354v-636q0 -100 49 -153.5t137 -53.5q86 0 137 59t51 156v628h355zM411 1257q-62 0 -104.5 41.5t-42.5 99.5q0 59 42 100t105 41t105.5 -41t42.5 -100q0 -58 -42.5 -99.5t-105.5 -41.5z
M844 1257q-63 0 -105 41t-42 100t42 100t105 41t105 -41t42 -100t-42 -100t-105 -41z" />
    <glyph glyph-name="yacute" unicode="&#xfd;" horiz-adv-x="1194" 
d="M254 -407q-119 0 -129 2v268q5 -1 62 -1q176 0 194 98l5 31l-380 1122h391l205 -845h7l205 845h374l-358 -1111q-71 -222 -203.5 -315.5t-372.5 -93.5zM728 1269h-275l227 316h312z" />
    <glyph glyph-name="thorn" unicode="&#xfe;" horiz-adv-x="1296" 
d="M794 1130q211 0 328 -150t117 -423q0 -272 -116 -423t-325 -151q-119 0 -205.5 49.5t-124.5 138.5h-19v-510h-354v1847h352v-576h19q41 94 127 146t201 52zM662 261q100 0 157 78.5t57 217.5q0 137 -57 216t-157 79t-157.5 -79t-58.5 -217q1 -139 58 -217t158 -78z" />
    <glyph glyph-name="ydieresis" unicode="&#xff;" horiz-adv-x="1194" 
d="M254 -407q-119 0 -129 2v268q5 -1 62 -1q176 0 194 98l5 31l-380 1122h391l205 -845h7l205 845h374l-358 -1111q-71 -222 -203.5 -315.5t-372.5 -93.5zM380 1257q-62 0 -104.5 41.5t-42.5 99.5q0 59 42 100t105 41t105.5 -41t42.5 -100q0 -58 -42.5 -99.5t-105.5 -41.5z
M813 1257q-63 0 -105 41t-42 100t42 100t105 41t105 -41t42 -100t-42 -100t-105 -41z" />
    <glyph glyph-name="Amacron" unicode="&#x100;" horiz-adv-x="1477" 
d="M1058 0l-91 317h-472l-92 -317h-374l485 1443h449l485 -1443h-390zM727 1137l-161 -556h329l-160 556h-8zM1099 1777v-163h-722v163h722z" />
    <glyph glyph-name="amacron" unicode="&#x101;" horiz-adv-x="1191" 
d="M546 231q88 0 149.5 47.5t61.5 122.5v77l-205 -14q-75 -5 -115.5 -36t-40.5 -82q0 -53 40.5 -84t109.5 -31zM421 -15q-159 0 -267.5 94.5t-108.5 242.5q0 155 115.5 241t335.5 100l261 16v64q0 67 -44.5 103.5t-120.5 36.5q-71 0 -117 -33.5t-54 -86.5h-319
q7 169 144.5 271.5t362.5 102.5q222 0 358 -103.5t136 -271.5v-762h-344v160h-7q-44 -82 -135.5 -128.5t-195.5 -46.5zM949 1449v-163h-688v163h688z" />
    <glyph glyph-name="Abreve" unicode="&#x102;" horiz-adv-x="1477" 
d="M1058 0l-91 317h-472l-92 -317h-374l485 1443h449l485 -1443h-390zM727 1137l-161 -556h329l-160 556h-8zM363 1865h208q3 -71 47.5 -115t119.5 -44t119.5 44t47.5 115h208q-4 -140 -104 -233t-271 -93t-271 93t-104 233z" />
    <glyph glyph-name="abreve" unicode="&#x103;" horiz-adv-x="1191" 
d="M546 231q88 0 149.5 47.5t61.5 122.5v77l-205 -14q-75 -5 -115.5 -36t-40.5 -82q0 -53 40.5 -84t109.5 -31zM421 -15q-159 0 -267.5 94.5t-108.5 242.5q0 155 115.5 241t335.5 100l261 16v64q0 67 -44.5 103.5t-120.5 36.5q-71 0 -117 -33.5t-54 -86.5h-319
q7 169 144.5 271.5t362.5 102.5q222 0 358 -103.5t136 -271.5v-762h-344v160h-7q-44 -82 -135.5 -128.5t-195.5 -46.5zM227 1581h210q2 -71 47 -116t121 -45t121 45t47 116h210q-4 -142 -105 -235.5t-273 -93.5t-273 93.5t-105 235.5z" />
    <glyph glyph-name="Aogonek" unicode="&#x104;" horiz-adv-x="1477" 
d="M727 1137l-161 -556h329l-160 556h-8zM1351 -456q-57 -23 -156 -23q-128 0 -209.5 64.5t-81.5 167.5q0 144 155 241l-92 323h-472l-92 -317h-374l485 1443h449l485 -1443l-69 -5q-87 -11 -153.5 -66.5t-66.5 -118.5q0 -45 32 -70t89 -25q51 0 71 8v-179z" />
    <glyph glyph-name="aogonek" unicode="&#x105;" horiz-adv-x="1191" 
d="M546 231q88 0 149.5 47.5t61.5 122.5v77l-205 -14q-75 -5 -115.5 -36t-40.5 -82q0 -53 40.5 -84t109.5 -31zM1053 -456q-57 -23 -156 -23q-130 0 -211 64.5t-81 166.5q0 70 43.5 134.5t110.5 101.5v172h-7q-44 -82 -135.5 -128.5t-195.5 -46.5q-159 0 -267.5 94.5
t-108.5 242.5q0 155 115.5 241t335.5 100l261 16v64q0 67 -44.5 103.5t-120.5 36.5q-71 0 -117 -33.5t-54 -86.5h-319q7 169 144.5 271.5t362.5 102.5q222 0 358 -103.5t136 -271.5v-762l-48 -7q-81 -17 -137.5 -68.5t-56.5 -114.5q0 -43 31 -69t90 -26q49 0 71 8v-179z" />
    <glyph glyph-name="Cacute" unicode="&#x106;" horiz-adv-x="1488" 
d="M876 1554h-269l232 316h313zM770 -25q-326 0 -513.5 197.5t-187.5 549.5q0 351 188 548.5t513 197.5q181 0 328 -72.5t233.5 -204t91.5 -299.5h-353q-13 127 -96 204.5t-204 77.5q-151 0 -239 -121t-88 -330q0 -212 88 -333t240 -121q121 0 202.5 74t98.5 201h353
q-13 -256 -194 -412.5t-461 -156.5z" />
    <glyph glyph-name="cacute" unicode="&#x107;" horiz-adv-x="1185" 
d="M1138 677h-325q-9 87 -60.5 138.5t-131.5 51.5q-98 0 -153.5 -81.5t-55.5 -228.5q0 -149 55 -229.5t154 -80.5q81 0 131.5 47.5t60.5 134.5h326q-8 -210 -148.5 -331.5t-373.5 -121.5q-261 0 -412 155t-151 426q0 268 151 424t410 156q232 0 373.5 -126t149.5 -334z
M726 1269h-275l227 316h312z" />
    <glyph glyph-name="Ccircumflex" unicode="&#x108;" horiz-adv-x="1488" 
d="M770 -25q-326 0 -513.5 197.5t-187.5 549.5q0 351 188 548.5t513 197.5q181 0 328 -72.5t233.5 -204t91.5 -299.5h-353q-13 127 -96 204.5t-204 77.5q-151 0 -239 -121t-88 -330q0 -212 88 -333t240 -121q121 0 202.5 74t98.5 201h353q-13 -256 -194 -412.5t-461 -156.5z
M614 1867h274l263 -328h-250l-147 194h-6l-147 -194h-250z" />
    <glyph glyph-name="ccircumflex" unicode="&#x109;" horiz-adv-x="1185" 
d="M729 1582l261 -327h-256l-135 184h-8l-136 -184h-255l260 327h269zM1138 677h-325q-9 87 -60.5 138.5t-131.5 51.5q-98 0 -153.5 -81.5t-55.5 -228.5q0 -149 55 -229.5t154 -80.5q81 0 131.5 47.5t60.5 134.5h326q-8 -210 -148.5 -331.5t-373.5 -121.5q-261 0 -412 155
t-151 426q0 268 151 424t410 156q232 0 373.5 -126t149.5 -334z" />
    <glyph glyph-name="Cdotaccent" unicode="&#x10a;" horiz-adv-x="1488" 
d="M751 1548q-69 0 -116.5 47.5t-47.5 115.5t47.5 115.5t116.5 47.5t116.5 -47.5t47.5 -115.5t-47.5 -115.5t-116.5 -47.5zM770 -25q-326 0 -513.5 197.5t-187.5 549.5q0 351 188 548.5t513 197.5q181 0 328 -72.5t233.5 -204t91.5 -299.5h-353q-13 127 -96 204.5t-204 77.5
q-151 0 -239 -121t-88 -330q0 -212 88 -333t240 -121q121 0 202.5 74t98.5 201h353q-13 -256 -194 -412.5t-461 -156.5z" />
    <glyph glyph-name="cdotaccent" unicode="&#x10b;" horiz-adv-x="1185" 
d="M1138 677h-325q-9 87 -60.5 138.5t-131.5 51.5q-98 0 -153.5 -81.5t-55.5 -228.5q0 -149 55 -229.5t154 -80.5q81 0 131.5 47.5t60.5 134.5h326q-8 -210 -148.5 -331.5t-373.5 -121.5q-261 0 -412 155t-151 426q0 268 151 424t410 156q232 0 373.5 -126t149.5 -334z
M593 1263q-69 0 -116.5 47.5t-47.5 114.5q0 66 47.5 113.5t116.5 47.5t117 -47.5t48 -113.5q0 -67 -48 -114.5t-117 -47.5z" />
    <glyph glyph-name="Ccaron" unicode="&#x10c;" horiz-adv-x="1488" 
d="M770 -25q-326 0 -513.5 197.5t-187.5 549.5q0 351 188 548.5t513 197.5q181 0 328 -72.5t233.5 -204t91.5 -299.5h-353q-13 127 -96 204.5t-204 77.5q-151 0 -239 -121t-88 -330q0 -212 88 -333t240 -121q121 0 202.5 74t98.5 201h353q-13 -256 -194 -412.5t-461 -156.5z
M614 1539l-263 328h250l147 -195h6l147 195h250l-263 -328h-274z" />
    <glyph glyph-name="ccaron" unicode="&#x10d;" horiz-adv-x="1185" 
d="M729 1255h-269l-260 327h255l136 -184h8l135 184h256zM1138 677h-325q-9 87 -60.5 138.5t-131.5 51.5q-98 0 -153.5 -81.5t-55.5 -228.5q0 -149 55 -229.5t154 -80.5q81 0 131.5 47.5t60.5 134.5h326q-8 -210 -148.5 -331.5t-373.5 -121.5q-261 0 -412 155t-151 426
q0 268 151 424t410 156q232 0 373.5 -126t149.5 -334z" />
    <glyph glyph-name="Dcaron" unicode="&#x10e;" horiz-adv-x="1459" 
d="M557 1539l-263 328h250l147 -195h6l147 195h250l-263 -328h-274zM109 1443h589q328 0 509.5 -185t181.5 -528q0 -345 -182 -537.5t-509 -192.5h-589v1443zM476 1147v-851h173q180 0 273.5 109t93.5 324q0 202 -96 310t-271 108h-173z" />
    <glyph glyph-name="dcaron" unicode="&#x10f;" horiz-adv-x="1524" 
d="M1350 1508h257l-45 -511h-212v511zM499 -15q-207 0 -326 153t-119 421q0 265 120 417t328 152q119 0 207.5 -57.5t126.5 -152.5h7v597h355v-1515h-353v191h-6q-35 -91 -127 -148.5t-213 -57.5zM631 849q-99 0 -157 -78.5t-58 -213.5q0 -136 57.5 -214.5t157.5 -78.5
q99 0 156.5 78t57.5 214q0 135 -57.5 214t-156.5 79z" />
    <glyph glyph-name="Dcroat" unicode="&#x110;" horiz-adv-x="1482" 
d="M499 296h173q180 0 273.5 109t93.5 324q0 202 -96 310t-271 108h-173v-295h243v-252h-243v-304zM132 1443h589q328 0 509.5 -185t181.5 -528q0 -345 -182 -537.5t-509 -192.5h-589v600h-80v252h80v591z" />
    <glyph glyph-name="dcroat" unicode="&#x111;" horiz-adv-x="1316" 
d="M631 264q99 0 156.5 78t57.5 214q0 135 -57.5 214t-156.5 79t-157 -78.5t-58 -213.5q0 -136 57.5 -214.5t157.5 -78.5zM1285 1408v-164h-87v-1244h-353v191h-6q-35 -91 -127 -148.5t-213 -57.5q-207 0 -326 153t-119 421q0 265 120 417t328 152q119 0 207.5 -57.5
t126.5 -152.5h7v326h-193v164h193v107h355v-107h87z" />
    <glyph glyph-name="Emacron" unicode="&#x112;" horiz-adv-x="1196" 
d="M1098 296v-296h-989v1443h989v-296h-622v-287h585v-270h-585v-294h622zM964 1777v-163h-722v163h722z" />
    <glyph glyph-name="emacron" unicode="&#x113;" horiz-adv-x="1205" 
d="M611 885q-85 0 -143 -57t-65 -146h414q-5 92 -61.5 147.5t-144.5 55.5zM825 350h320q-26 -171 -168.5 -272.5t-358.5 -101.5q-264 0 -414 153t-150 422t149 427.5t403 158.5q249 0 397.5 -151.5t148.5 -405.5v-101h-753v-22q0 -102 62 -165.5t162 -63.5q74 0 128 32.5
t74 89.5zM949 1449v-163h-688v163h688z" />
    <glyph glyph-name="Ebreve" unicode="&#x114;" horiz-adv-x="1196" 
d="M1098 296v-296h-989v1443h989v-296h-622v-287h585v-270h-585v-294h622zM228 1865h208q3 -71 47.5 -115t119.5 -44t119.5 44t47.5 115h208q-4 -140 -104 -233t-271 -93t-271 93t-104 233z" />
    <glyph glyph-name="ebreve" unicode="&#x115;" horiz-adv-x="1205" 
d="M611 885q-85 0 -143 -57t-65 -146h414q-5 92 -61.5 147.5t-144.5 55.5zM825 350h320q-26 -171 -168.5 -272.5t-358.5 -101.5q-264 0 -414 153t-150 422t149 427.5t403 158.5q249 0 397.5 -151.5t148.5 -405.5v-101h-753v-22q0 -102 62 -165.5t162 -63.5q74 0 128 32.5
t74 89.5zM227 1581h210q2 -71 47 -116t121 -45t121 45t47 116h210q-4 -142 -105 -235.5t-273 -93.5t-273 93.5t-105 235.5z" />
    <glyph glyph-name="Edotaccent" unicode="&#x116;" horiz-adv-x="1196" 
d="M603 1548q-69 0 -116.5 47.5t-47.5 115.5t47.5 115.5t116.5 47.5t116.5 -47.5t47.5 -115.5t-47.5 -115.5t-116.5 -47.5zM1098 296v-296h-989v1443h989v-296h-622v-287h585v-270h-585v-294h622z" />
    <glyph glyph-name="edotaccent" unicode="&#x117;" horiz-adv-x="1205" 
d="M603 1263q-69 0 -116.5 47.5t-47.5 114.5q0 66 47.5 113.5t116.5 47.5t117 -47.5t48 -113.5q0 -67 -48 -114.5t-117 -47.5zM611 885q-85 0 -143 -57t-65 -146h414q-5 92 -61.5 147.5t-144.5 55.5zM825 350h320q-26 -171 -168.5 -272.5t-358.5 -101.5q-264 0 -414 153
t-150 422t149 427.5t403 158.5q249 0 397.5 -151.5t148.5 -405.5v-101h-753v-22q0 -102 62 -165.5t162 -63.5q74 0 128 32.5t74 89.5z" />
    <glyph glyph-name="Eogonek" unicode="&#x118;" horiz-adv-x="1196" 
d="M889 -479q-128 0 -209 64t-81 167q0 73 45 140.5t118 103.5v4h-653v1443h989v-296h-622v-287h585v-270h-585v-294h622v-293l-48 -10q-78 -15 -137 -70t-59 -113q0 -45 31.5 -70t89.5 -25q50 0 70 8v-179q-57 -23 -156 -23z" />
    <glyph glyph-name="eogonek" unicode="&#x119;" horiz-adv-x="1205" 
d="M832 -479q-128 0 -209.5 64.5t-81.5 166.5q0 68 38 125.5t108 95.5v7q-28 -4 -69 -4q-264 0 -414 153t-150 422t149 427.5t403 158.5q249 0 397.5 -151.5t148.5 -405.5v-101h-753v-22q0 -102 62 -165.5t162 -63.5q74 0 128 32.5t74 89.5h320q-10 -71 -50 -139t-102 -119
q-196 -161 -196 -274q0 -50 31 -76.5t90 -26.5q50 0 70 8v-179q-57 -23 -156 -23zM611 885q-85 0 -143 -57t-65 -146h414q-5 92 -61.5 147.5t-144.5 55.5z" />
    <glyph glyph-name="Ecaron" unicode="&#x11a;" horiz-adv-x="1196" 
d="M466 1539l-263 328h250l147 -195h6l147 195h250l-263 -328h-274zM1098 296v-296h-989v1443h989v-296h-622v-287h585v-270h-585v-294h622z" />
    <glyph glyph-name="ecaron" unicode="&#x11b;" horiz-adv-x="1205" 
d="M739 1255h-269l-260 327h255l136 -184h8l135 184h256zM611 885q-85 0 -143 -57t-65 -146h414q-5 92 -61.5 147.5t-144.5 55.5zM825 350h320q-26 -171 -168.5 -272.5t-358.5 -101.5q-264 0 -414 153t-150 422t149 427.5t403 158.5q249 0 397.5 -151.5t148.5 -405.5v-101
h-753v-22q0 -102 62 -165.5t162 -63.5q74 0 128 32.5t74 89.5z" />
    <glyph glyph-name="Gcircumflex" unicode="&#x11c;" horiz-adv-x="1510" 
d="M616 1867h274l263 -328h-250l-147 194h-6l-147 -194h-250zM1437 610q0 -296 -174 -465.5t-481 -169.5q-335 0 -524 197.5t-189 551.5q0 350 188 547t516 197q261 0 441 -140t208 -361h-363q-27 96 -103 151t-182 55q-156 0 -243.5 -117t-87.5 -327q0 -213 94 -336
t253 -123q124 0 204 67t88 176l1 22h-264v252h618v-177z" />
    <glyph glyph-name="gcircumflex" unicode="&#x11d;" horiz-adv-x="1287" 
d="M771 1582l261 -327h-256l-135 184h-8l-136 -184h-255l260 327h269zM630 274q100 0 157.5 74.5t57.5 208.5t-58 213t-157 79t-156.5 -78.5t-57.5 -212.5q0 -135 57 -209.5t157 -74.5zM624 -413q-236 0 -384 92.5t-155 247.5h344q11 -47 67.5 -75.5t133.5 -28.5
q97 0 155 46.5t58 126.5v211h-7q-34 -89 -125.5 -142.5t-213.5 -53.5q-201 0 -322 146.5t-121 402.5q0 265 120 416.5t329 151.5q118 0 207.5 -57.5t128.5 -152.5h6v195h353v-1091q0 -198 -157 -316.5t-417 -118.5z" />
    <glyph glyph-name="Gbreve" unicode="&#x11e;" horiz-adv-x="1510" 
d="M1437 610q0 -296 -174 -465.5t-481 -169.5q-335 0 -524 197.5t-189 551.5q0 350 188 547t516 197q261 0 441 -140t208 -361h-363q-27 96 -103 151t-182 55q-156 0 -243.5 -117t-87.5 -327q0 -213 94 -336t253 -123q124 0 204 67t88 176l1 22h-264v252h618v-177zM378 1865
h208q3 -71 47.5 -115t119.5 -44t119.5 44t47.5 115h208q-4 -140 -104 -233t-271 -93t-271 93t-104 233z" />
    <glyph glyph-name="gbreve" unicode="&#x11f;" horiz-adv-x="1287" 
d="M259 1581h210q2 -71 47 -116t121 -45t121 45t47 116h210q-4 -142 -105 -235.5t-273 -93.5t-273 93.5t-105 235.5zM630 274q100 0 157.5 74.5t57.5 208.5t-58 213t-157 79t-156.5 -78.5t-57.5 -212.5q0 -135 57 -209.5t157 -74.5zM624 -413q-236 0 -384 92.5t-155 247.5
h344q11 -47 67.5 -75.5t133.5 -28.5q97 0 155 46.5t58 126.5v211h-7q-34 -89 -125.5 -142.5t-213.5 -53.5q-201 0 -322 146.5t-121 402.5q0 265 120 416.5t329 151.5q118 0 207.5 -57.5t128.5 -152.5h6v195h353v-1091q0 -198 -157 -316.5t-417 -118.5z" />
    <glyph glyph-name="Gdotaccent" unicode="&#x120;" horiz-adv-x="1510" 
d="M753 1548q-69 0 -116.5 47.5t-47.5 115.5t47.5 115.5t116.5 47.5t116.5 -47.5t47.5 -115.5t-47.5 -115.5t-116.5 -47.5zM1437 610q0 -296 -174 -465.5t-481 -169.5q-335 0 -524 197.5t-189 551.5q0 350 188 547t516 197q261 0 441 -140t208 -361h-363q-27 96 -103 151
t-182 55q-156 0 -243.5 -117t-87.5 -327q0 -213 94 -336t253 -123q124 0 204 67t88 176l1 22h-264v252h618v-177z" />
    <glyph glyph-name="gdotaccent" unicode="&#x121;" horiz-adv-x="1287" 
d="M635 1263q-69 0 -116.5 47.5t-47.5 114.5q0 66 47.5 113.5t116.5 47.5t117 -47.5t48 -113.5q0 -67 -48 -114.5t-117 -47.5zM630 274q100 0 157.5 74.5t57.5 208.5t-58 213t-157 79t-156.5 -78.5t-57.5 -212.5q0 -135 57 -209.5t157 -74.5zM624 -413q-236 0 -384 92.5
t-155 247.5h344q11 -47 67.5 -75.5t133.5 -28.5q97 0 155 46.5t58 126.5v211h-7q-34 -89 -125.5 -142.5t-213.5 -53.5q-201 0 -322 146.5t-121 402.5q0 265 120 416.5t329 151.5q118 0 207.5 -57.5t128.5 -152.5h6v195h353v-1091q0 -198 -157 -316.5t-417 -118.5z" />
    <glyph glyph-name="Gcommaaccent" unicode="&#x122;" horiz-adv-x="1510" 
d="M727 -477h-265l138 333h310zM1437 610q0 -296 -174 -465.5t-481 -169.5q-335 0 -524 197.5t-189 551.5q0 350 188 547t516 197q261 0 441 -140t208 -361h-363q-27 96 -103 151t-182 55q-156 0 -243.5 -117t-87.5 -327q0 -213 94 -336t253 -123q124 0 204 67t88 176l1 22
h-264v252h618v-177z" />
    <glyph glyph-name="gcommaaccent" unicode="&#x123;" horiz-adv-x="1287" 
d="M612 -867h-265l138 333h310zM630 274q100 0 157.5 74.5t57.5 208.5t-58 213t-157 79t-156.5 -78.5t-57.5 -212.5q0 -135 57 -209.5t157 -74.5zM624 -413q-236 0 -384 92.5t-155 247.5h344q11 -47 67.5 -75.5t133.5 -28.5q97 0 155 46.5t58 126.5v211h-7
q-34 -89 -125.5 -142.5t-213.5 -53.5q-201 0 -322 146.5t-121 402.5q0 265 120 416.5t329 151.5q118 0 207.5 -57.5t128.5 -152.5h6v195h353v-1091q0 -198 -157 -316.5t-417 -118.5z" />
    <glyph glyph-name="Hcircumflex" unicode="&#x124;" horiz-adv-x="1527" 
d="M1417 0h-366v581h-575v-581h-367v1443h367v-566h575v566h366v-1443zM626 1867h274l263 -328h-250l-147 194h-6l-147 -194h-250z" />
    <glyph glyph-name="hcircumflex" unicode="&#x125;" horiz-adv-x="1269" 
d="M95 0v1515h347v-611h7q44 112 133 170t216 58q185 0 286 -111t101 -309v-712h-355v636q0 98 -47.5 152.5t-137.5 54.5q-92 0 -144 -59.5t-52 -156.5v-627h-354zM134 1939h274l263 -328h-250l-147 194h-6l-147 -194h-250z" />
    <glyph glyph-name="Hbar" unicode="&#x126;" horiz-adv-x="1567" 
d="M1071 877v162h-575v-162h575zM1527 1286v-247h-90v-1039h-366v581h-575v-581h-367v1039h-89v247h89v157h367v-157h575v157h366v-157h90z" />
    <glyph glyph-name="hbar" unicode="&#x127;" horiz-adv-x="1269" 
d="M442 904h7q44 112 133 170t216 58q185 0 286 -111t101 -309v-712h-355v636q0 98 -47.5 152.5t-137.5 54.5q-92 0 -144 -59.5t-52 -156.5v-627h-354v1244h-64v164h64v107h347v-107h217v-164h-217v-340z" />
    <glyph glyph-name="Itilde" unicode="&#x128;" horiz-adv-x="585" 
d="M476 0h-367v1443h367v-1443zM440 1543q-48 0 -90.5 20t-67.5 43.5t-53.5 43.5t-51.5 20q-33 0 -50 -30.5t-19 -79.5h-181q0 131 67 207t167 76q49 0 92 -20t68.5 -43.5t53.5 -43.5t51 -20q64 0 67 114h181q0 -130 -67.5 -208.5t-166.5 -78.5z" />
    <glyph glyph-name="itilde" unicode="&#x129;" horiz-adv-x="537" 
d="M91 0v1113h355v-1113h-355zM416 1258q-48 0 -90.5 20t-67.5 43.5t-53.5 43.5t-51.5 20q-33 0 -50 -30.5t-19 -79.5h-181q0 131 67 207t167 76q49 0 92 -20t68.5 -43.5t53.5 -43.5t51 -20q64 0 67 114h181q0 -130 -67.5 -208.5t-166.5 -78.5z" />
    <glyph glyph-name="Imacron" unicode="&#x12a;" horiz-adv-x="585" 
d="M476 0h-367v1443h367v-1443zM654 1777v-163h-722v163h722z" />
    <glyph glyph-name="imacron" unicode="&#x12b;" horiz-adv-x="537" 
d="M91 0v1113h355v-1113h-355zM612 1449v-163h-688v163h688z" />
    <glyph glyph-name="Ibreve" unicode="&#x12c;" horiz-adv-x="585" 
d="M476 0h-367v1443h367v-1443zM-82 1865h208q3 -71 47.5 -115t119.5 -44t119.5 44t47.5 115h208q-4 -140 -104 -233t-271 -93t-271 93t-104 233z" />
    <glyph glyph-name="ibreve" unicode="&#x12d;" horiz-adv-x="537" 
d="M91 0v1113h355v-1113h-355zM-110 1581h210q2 -71 47 -116t121 -45t121 45t47 116h210q-4 -142 -105 -235.5t-273 -93.5t-273 93.5t-105 235.5z" />
    <glyph glyph-name="Iogonek" unicode="&#x12e;" horiz-adv-x="585" 
d="M109 -44v1487h367v-1443l-32 -7q-74 -22 -130 -70t-56 -107q0 -47 35 -74t97 -27q35 0 71 8v-179q-58 -23 -164 -23q-127 0 -207 64.5t-80 166.5q0 119 99 204z" />
    <glyph glyph-name="iogonek" unicode="&#x12f;" horiz-adv-x="537" 
d="M268 1205q-76 0 -129 50t-53 125q0 74 53 124.5t129 50.5t129.5 -50.5t53.5 -124.5q0 -75 -53 -125t-130 -50zM91 -30v1143h355v-1113l-47 -7q-71 -18 -119.5 -66t-48.5 -109q0 -48 33 -75.5t96 -27.5q35 0 70 7v-178q-54 -23 -151 -23q-136 0 -217.5 66t-81.5 173
q0 59 29.5 114.5t81.5 95.5z" />
    <glyph glyph-name="Idotaccent" unicode="&#x130;" horiz-adv-x="585" 
d="M476 0h-367v1443h367v-1443zM293 1548q-69 0 -116.5 47.5t-47.5 115.5t47.5 115.5t116.5 47.5t116.5 -47.5t47.5 -115.5t-47.5 -115.5t-116.5 -47.5z" />
    <glyph glyph-name="dotlessi" unicode="&#x131;" horiz-adv-x="537" 
d="M91 0v1113h355v-1113h-355z" />
    <glyph glyph-name="u0132" unicode="&#x132;" horiz-adv-x="1796" 
d="M476 0h-367v1443h367v-1443zM610 470h353q1 -86 47.5 -136.5t125.5 -50.5q81 0 124 50.5t43 146.5v963h366v-965q0 -242 -139.5 -373.5t-389.5 -131.5q-243 0 -386.5 134t-143.5 363z" />
    <glyph glyph-name="u0133" unicode="&#x133;" horiz-adv-x="1074" 
d="M91 0v1113h355v-1113h-355zM268 1205q-76 0 -129 50t-53 125q0 74 53 124.5t129 50.5t129.5 -50.5t53.5 -124.5q0 -75 -53 -125t-130 -50zM983 1113v-1140q0 -169 -109.5 -260t-313.5 -91q-56 0 -103 5v253q20 -2 42 -2q69 0 99 25t30 83v1127h355zM805 1205
q-76 0 -129 50t-53 125q0 74 53 124.5t129 50.5t129.5 -50.5t53.5 -124.5q0 -75 -53 -125t-130 -50z" />
    <glyph glyph-name="Jcircumflex" unicode="&#x134;" horiz-adv-x="1210" 
d="M25 470h353q1 -86 47.5 -136.5t125.5 -50.5q81 0 124 50.5t43 146.5v963h366v-965q0 -242 -139.5 -373.5t-389.5 -131.5q-243 0 -386.5 134t-143.5 363zM771 1867h274l263 -328h-250l-147 194h-6l-147 -194h-250z" />
    <glyph glyph-name="jcircumflex" unicode="&#x135;" horiz-adv-x="536" 
d="M446 1113v-1140q0 -169 -109.5 -260t-313.5 -91q-55 0 -103 5v253q20 -2 42 -2q69 0 99 25t30 83v1127h355zM402 1582l261 -327h-256l-135 184h-8l-136 -184h-255l260 327h269z" />
    <glyph glyph-name="Kcommaaccent" unicode="&#x136;" horiz-adv-x="1401" 
d="M476 0h-367v1443h367v-634h8l491 634h394l-503 -641l532 -802h-431l-368 564l-123 -156v-408zM670 -477h-265l138 333h310z" />
    <glyph glyph-name="kcommaaccent" unicode="&#x137;" horiz-adv-x="1179" 
d="M456 687l327 426h396l-400 -477l423 -636h-408l-277 424l-68 -79v-345h-354v1515h354v-828h7zM574 -477h-265l138 333h310z" />
    <glyph glyph-name="Lacute" unicode="&#x139;" horiz-adv-x="1132" 
d="M417 1554h-269l232 316h313zM1073 296v-296h-964v1443h367v-1147h597z" />
    <glyph glyph-name="lacute" unicode="&#x13a;" horiz-adv-x="545" 
d="M397 1626h-269l232 316h313zM95 0v1515h354v-1515h-354z" />
    <glyph glyph-name="Lcommaaccent" unicode="&#x13b;" horiz-adv-x="1132" 
d="M550 -477h-265l138 333h310zM1073 296v-296h-964v1443h367v-1147h597z" />
    <glyph glyph-name="lcommaaccent" unicode="&#x13c;" horiz-adv-x="545" 
d="M246 -477h-265l138 333h310zM95 0v1515h354v-1515h-354z" />
    <glyph glyph-name="Lcaron" unicode="&#x13d;" horiz-adv-x="1132" 
d="M720 1443h286l-50 -511h-236v511zM1073 296v-296h-964v1443h367v-1147h597z" />
    <glyph glyph-name="lcaron" unicode="&#x13e;" horiz-adv-x="793" 
d="M604 1508h256l-45 -511h-211v511zM95 0v1515h354v-1515h-354z" />
    <glyph glyph-name="Lslash" unicode="&#x141;" horiz-adv-x="1152" 
d="M496 296h597v-296h-964v604l-83 -44v229l83 44v610h367v-417l270 142v-229l-270 -142v-501z" />
    <glyph glyph-name="lslash" unicode="&#x142;" horiz-adv-x="589" 
d="M570 1127v-229l-99 -56v-842h-354v641l-98 -56v229l98 56v645h354v-444z" />
    <glyph glyph-name="Nacute" unicode="&#x143;" horiz-adv-x="1479" 
d="M865 1554h-269l232 316h313zM457 0h-348v1443h293l612 -839h8v839h348v-1443h-290l-615 847h-8v-847z" />
    <glyph glyph-name="nacute" unicode="&#x144;" horiz-adv-x="1256" 
d="M760 1269h-275l227 316h312zM89 0v1113h344v-209h7q92 228 345 228q185 0 286 -110.5t101 -308.5v-713h-355v637q0 98 -46 152t-136 54q-89 0 -140.5 -59.5t-51.5 -155.5v-628h-354z" />
    <glyph glyph-name="Ncommaaccent" unicode="&#x145;" horiz-adv-x="1479" 
d="M714 -477h-265l138 333h310zM457 0h-348v1443h293l612 -839h8v839h348v-1443h-290l-615 847h-8v-847z" />
    <glyph glyph-name="ncommaaccent" unicode="&#x146;" horiz-adv-x="1256" 
d="M607 -477h-265l138 333h310zM89 0v1113h344v-209h7q92 228 345 228q185 0 286 -110.5t101 -308.5v-713h-355v637q0 98 -46 152t-136 54q-89 0 -140.5 -59.5t-51.5 -155.5v-628h-354z" />
    <glyph glyph-name="Ncaron" unicode="&#x147;" horiz-adv-x="1479" 
d="M603 1539l-263 328h250l147 -195h6l147 195h250l-263 -328h-274zM457 0h-348v1443h293l612 -839h8v839h348v-1443h-290l-615 847h-8v-847z" />
    <glyph glyph-name="ncaron" unicode="&#x148;" horiz-adv-x="1256" 
d="M763 1255h-269l-260 327h255l136 -184h8l135 184h256zM89 0v1113h344v-209h7q92 228 345 228q185 0 286 -110.5t101 -308.5v-713h-355v637q0 98 -46 152t-136 54q-89 0 -140.5 -59.5t-51.5 -155.5v-628h-354z" />
    <glyph glyph-name="Omacron" unicode="&#x14c;" horiz-adv-x="1564" 
d="M782 1468q328 0 520 -201t192 -546t-192 -545.5t-520 -200.5q-329 0 -521 200.5t-192 545.5t192.5 546t520.5 201zM782 1170q-154 0 -246.5 -121.5t-92.5 -327.5q0 -205 92 -326.5t247 -121.5q154 0 246.5 121.5t92.5 326.5q0 206 -92.5 327.5t-246.5 121.5zM1143 1777
v-163h-722v163h722z" />
    <glyph glyph-name="omacron" unicode="&#x14d;" horiz-adv-x="1242" 
d="M965 1449v-163h-688v163h688zM621 -24q-265 0 -416 153.5t-151 427.5q0 269 153 424.5t414 155.5q262 0 414.5 -154.5t152.5 -425.5q0 -275 -151 -428t-416 -153zM621 237q98 0 153 83.5t55 236.5q0 149 -56 234t-152 85q-97 0 -152.5 -84.5t-55.5 -234.5
q0 -153 55 -236.5t153 -83.5z" />
    <glyph glyph-name="Obreve" unicode="&#x14e;" horiz-adv-x="1564" 
d="M782 1468q328 0 520 -201t192 -546t-192 -545.5t-520 -200.5q-329 0 -521 200.5t-192 545.5t192.5 546t520.5 201zM782 1170q-154 0 -246.5 -121.5t-92.5 -327.5q0 -205 92 -326.5t247 -121.5q154 0 246.5 121.5t92.5 326.5q0 206 -92.5 327.5t-246.5 121.5zM407 1865
h208q3 -71 47.5 -115t119.5 -44t119.5 44t47.5 115h208q-4 -140 -104 -233t-271 -93t-271 93t-104 233z" />
    <glyph glyph-name="obreve" unicode="&#x14f;" horiz-adv-x="1242" 
d="M243 1581h210q2 -71 47 -116t121 -45t121 45t47 116h210q-4 -142 -105 -235.5t-273 -93.5t-273 93.5t-105 235.5zM621 -24q-265 0 -416 153.5t-151 427.5q0 269 153 424.5t414 155.5q262 0 414.5 -154.5t152.5 -425.5q0 -275 -151 -428t-416 -153zM621 237q98 0 153 83.5
t55 236.5q0 149 -56 234t-152 85q-97 0 -152.5 -84.5t-55.5 -234.5q0 -153 55 -236.5t153 -83.5z" />
    <glyph glyph-name="Ohungarumlaut" unicode="&#x150;" horiz-adv-x="1564" 
d="M1130 1554h-267l232 316h310zM690 1554h-266l231 316h311zM782 1468q328 0 520 -201t192 -546t-192 -545.5t-520 -200.5q-329 0 -521 200.5t-192 545.5t192.5 546t520.5 201zM782 1170q-154 0 -246.5 -121.5t-92.5 -327.5q0 -205 92 -326.5t247 -121.5q154 0 246.5 121.5
t92.5 326.5q0 206 -92.5 327.5t-246.5 121.5z" />
    <glyph glyph-name="ohungarumlaut" unicode="&#x151;" horiz-adv-x="1242" 
d="M688 1270l185 315h282l-221 -315h-246zM288 1270l187 315h281l-222 -315h-246zM621 -24q-265 0 -416 153.5t-151 427.5q0 269 153 424.5t414 155.5q262 0 414.5 -154.5t152.5 -425.5q0 -275 -151 -428t-416 -153zM621 237q98 0 153 83.5t55 236.5q0 149 -56 234t-152 85
q-97 0 -152.5 -84.5t-55.5 -234.5q0 -153 55 -236.5t153 -83.5z" />
    <glyph glyph-name="OE" unicode="&#x152;" horiz-adv-x="2216" 
d="M791 1175q-154 0 -247 -124t-93 -330t92.5 -329.5t247.5 -123.5t247.5 123.5t92.5 329.5t-93 330t-247 124zM1180 0v240q-42 -121 -172 -198.5t-290 -77.5q-138 0 -256.5 55.5t-203.5 154.5t-133 240.5t-48 306.5q0 222 83 395t230 268t333 95q158 0 279.5 -75
t177.5 -208v247h938v-296h-617v-287h580v-270h-580v-294h617v-296h-938z" />
    <glyph glyph-name="oe" unicode="&#x153;" horiz-adv-x="1967" 
d="M1413 -24q-133 0 -239 49.5t-159 137.5h-17q-131 -187 -392 -187q-253 0 -402.5 156.5t-149.5 420.5q0 265 149.5 424.5t398.5 159.5q266 0 395 -187h17q53 86 157 136.5t228 50.5q230 0 372 -153.5t142 -403.5v-101h-736v-36q0 -96 62 -155.5t162 -59.5q70 0 120.5 29
t64.5 78h320q-23 -158 -161 -258.5t-332 -100.5zM1573 682q-4 92 -57 147.5t-136 55.5q-86 0 -142.5 -57t-60.5 -146h396zM402 554q0 -145 53.5 -226t150.5 -81t151 81.5t54 226.5q0 146 -54.5 229t-150.5 83q-95 0 -149.5 -83.5t-54.5 -229.5z" />
    <glyph glyph-name="Racute" unicode="&#x154;" horiz-adv-x="1358" 
d="M784 1554h-269l232 316h313zM476 1166v-410h217q101 0 158 55t57 149q0 93 -59 149.5t-157 56.5h-216zM476 505v-505h-367v1443h620q268 0 411 -125t143 -351q0 -136 -65 -246.5t-181 -161.5l288 -559h-412l-247 505h-190z" />
    <glyph glyph-name="racute" unicode="&#x155;" horiz-adv-x="816" 
d="M554 1269h-275l227 316h312zM89 0v1113h344v-209h7q61 224 263 224q49 0 91 -14v-304q-46 20 -115 20q-114 0 -175 -62.5t-61 -179.5v-588h-354z" />
    <glyph glyph-name="Rcommaaccent" unicode="&#x156;" horiz-adv-x="1358" 
d="M476 1166v-410h217q101 0 158 55t57 149q0 93 -59 149.5t-157 56.5h-216zM476 505v-505h-367v1443h620q268 0 411 -125t143 -351q0 -136 -65 -246.5t-181 -161.5l288 -559h-412l-247 505h-190zM633 -477h-265l138 333h310z" />
    <glyph glyph-name="rcommaaccent" unicode="&#x157;" horiz-adv-x="816" 
d="M89 0v1113h344v-209h7q61 224 263 224q49 0 91 -14v-304q-46 20 -115 20q-114 0 -175 -62.5t-61 -179.5v-588h-354zM243 -477h-265l138 333h310z" />
    <glyph glyph-name="Rcaron" unicode="&#x158;" horiz-adv-x="1358" 
d="M476 1166v-410h217q101 0 158 55t57 149q0 93 -59 149.5t-157 56.5h-216zM476 505v-505h-367v1443h620q268 0 411 -125t143 -351q0 -136 -65 -246.5t-181 -161.5l288 -559h-412l-247 505h-190zM522 1539l-263 328h250l147 -195h6l147 195h250l-263 -328h-274z" />
    <glyph glyph-name="rcaron" unicode="&#x159;" horiz-adv-x="816" 
d="M557 1255h-269l-260 327h255l136 -184h8l135 184h256zM89 0v1113h344v-209h7q61 224 263 224q49 0 91 -14v-304q-46 20 -115 20q-114 0 -175 -62.5t-61 -179.5v-588h-354z" />
    <glyph glyph-name="Sacute" unicode="&#x15a;" horiz-adv-x="1334" 
d="M795 1554h-269l232 316h313zM63 418h349q10 -73 83.5 -119t176.5 -46q106 0 171 42.5t65 108.5q0 60 -50.5 93.5t-174.5 59.5l-189 37q-199 38 -301 143.5t-102 270.5q0 208 160.5 334t413.5 126q268 0 421.5 -120.5t156.5 -325.5h-338q-5 78 -70 123t-166 45
q-96 0 -154.5 -40t-58.5 -106q0 -58 50.5 -93.5t164.5 -58.5l187 -35q213 -41 313 -141t100 -271q0 -215 -165 -342.5t-444 -127.5q-277 0 -436.5 117t-162.5 326z" />
    <glyph glyph-name="sacute" unicode="&#x15b;" horiz-adv-x="1128" 
d="M69 776q0 166 133.5 263.5t360.5 97.5q225 0 357 -100t134 -271h-324q-2 60 -48.5 95.5t-122.5 35.5q-67 0 -108 -27t-41 -71q0 -67 128 -94l230 -48q167 -35 241.5 -107t74.5 -198q0 -171 -142 -273.5t-375 -102.5q-237 0 -375 100.5t-149 272.5h344q8 -63 57.5 -98
t129.5 -35q74 0 116.5 25.5t42.5 70.5q0 35 -28.5 56t-94.5 35l-209 44q-163 34 -247.5 118t-84.5 211zM696 1269h-275l227 316h312z" />
    <glyph glyph-name="Scircumflex" unicode="&#x15c;" horiz-adv-x="1334" 
d="M63 418h349q10 -73 83.5 -119t176.5 -46q106 0 171 42.5t65 108.5q0 60 -50.5 93.5t-174.5 59.5l-189 37q-199 38 -301 143.5t-102 270.5q0 208 160.5 334t413.5 126q268 0 421.5 -120.5t156.5 -325.5h-338q-5 78 -70 123t-166 45q-96 0 -154.5 -40t-58.5 -106
q0 -58 50.5 -93.5t164.5 -58.5l187 -35q213 -41 313 -141t100 -271q0 -215 -165 -342.5t-444 -127.5q-277 0 -436.5 117t-162.5 326zM533 1867h274l263 -328h-250l-147 194h-6l-147 -194h-250z" />
    <glyph glyph-name="scircumflex" unicode="&#x15d;" horiz-adv-x="1128" 
d="M699 1582l261 -327h-256l-135 184h-8l-136 -184h-255l260 327h269zM69 776q0 166 133.5 263.5t360.5 97.5q225 0 357 -100t134 -271h-324q-2 60 -48.5 95.5t-122.5 35.5q-67 0 -108 -27t-41 -71q0 -67 128 -94l230 -48q167 -35 241.5 -107t74.5 -198q0 -171 -142 -273.5
t-375 -102.5q-237 0 -375 100.5t-149 272.5h344q8 -63 57.5 -98t129.5 -35q74 0 116.5 25.5t42.5 70.5q0 35 -28.5 56t-94.5 35l-209 44q-163 34 -247.5 118t-84.5 211z" />
    <glyph glyph-name="Scedilla" unicode="&#x15e;" horiz-adv-x="1334" 
d="M671 892l187 -35q213 -41 313 -141t100 -271q0 -195 -136.5 -318.5t-373.5 -146.5l-38 -82q80 0 126.5 -43.5t46.5 -119.5q0 -92 -65 -141.5t-187 -49.5q-90 0 -137 15v131q36 -12 105 -12q100 0 100 45q0 28 -25 39.5t-87 11.5h-56v114l45 89q-245 16 -384 131t-142 310
h349q10 -73 83.5 -119t176.5 -46q106 0 171 42.5t65 108.5q0 60 -50.5 93.5t-174.5 59.5l-189 37q-199 38 -301 143.5t-102 270.5q0 208 160.5 334t413.5 126q268 0 421.5 -120.5t156.5 -325.5h-338q-5 78 -70 123t-166 45q-96 0 -154.5 -40t-58.5 -106q0 -58 50.5 -93.5
t164.5 -58.5z" />
    <glyph glyph-name="scedilla" unicode="&#x15f;" horiz-adv-x="1128" 
d="M538 705l230 -48q167 -35 241.5 -107t74.5 -198q0 -153 -115 -252t-310 -119l-39 -83q80 0 126.5 -43.5t46.5 -119.5q0 -92 -65 -141.5t-187 -49.5q-91 0 -137 15v131q36 -12 105 -12q100 0 100 45q0 28 -25 39.5t-87 11.5h-56v114l46 91q-202 17 -317.5 115.5
t-126.5 254.5h344q8 -63 57.5 -98t129.5 -35q74 0 116.5 25.5t42.5 70.5q0 35 -28.5 56t-94.5 35l-209 44q-163 34 -247.5 118t-84.5 211q0 166 133.5 263.5t360.5 97.5q225 0 357 -100t134 -271h-324q-2 60 -48.5 95.5t-122.5 35.5q-67 0 -108 -27t-41 -71q0 -67 128 -94z
" />
    <glyph glyph-name="Scaron" unicode="&#x160;" horiz-adv-x="1334" 
d="M63 418h349q10 -73 83.5 -119t176.5 -46q106 0 171 42.5t65 108.5q0 60 -50.5 93.5t-174.5 59.5l-189 37q-199 38 -301 143.5t-102 270.5q0 208 160.5 334t413.5 126q268 0 421.5 -120.5t156.5 -325.5h-338q-5 78 -70 123t-166 45q-96 0 -154.5 -40t-58.5 -106
q0 -58 50.5 -93.5t164.5 -58.5l187 -35q213 -41 313 -141t100 -271q0 -215 -165 -342.5t-444 -127.5q-277 0 -436.5 117t-162.5 326zM533 1539l-263 328h250l147 -195h6l147 195h250l-263 -328h-274z" />
    <glyph glyph-name="scaron" unicode="&#x161;" horiz-adv-x="1128" 
d="M699 1255h-269l-260 327h255l136 -184h8l135 184h256zM69 776q0 166 133.5 263.5t360.5 97.5q225 0 357 -100t134 -271h-324q-2 60 -48.5 95.5t-122.5 35.5q-67 0 -108 -27t-41 -71q0 -67 128 -94l230 -48q167 -35 241.5 -107t74.5 -198q0 -171 -142 -273.5t-375 -102.5
q-237 0 -375 100.5t-149 272.5h344q8 -63 57.5 -98t129.5 -35q74 0 116.5 25.5t42.5 70.5q0 35 -28.5 56t-94.5 35l-209 44q-163 34 -247.5 118t-84.5 211z" />
    <glyph glyph-name="Tcedilla" unicode="&#x162;" horiz-adv-x="1259" 
d="M813 0h-79l-48 -102q80 0 126.5 -43.5t46.5 -119.5q0 -92 -65 -141.5t-187 -49.5q-91 0 -137 15v131q36 -12 105 -12q100 0 100 45q0 28 -25 39.5t-87 11.5h-56v114l56 112h-117v1147h-400v296h1167v-296h-400v-1147z" />
    <glyph glyph-name="tcedilla" unicode="&#x163;" horiz-adv-x="797" 
d="M733 851h-201v-475q0 -117 129 -117q37 0 72 5v-252q-61 -14 -156 -14h-4l-47 -100q80 0 126.5 -43.5t46.5 -119.5q0 -92 -65 -141.5t-187 -49.5q-91 0 -137 15v131q36 -12 105 -12q100 0 100 45q0 28 -25 39.5t-87 11.5h-56v114l62 124q-121 25 -176 95t-55 198v546
h-149v262h149v246h354v-246h201v-262z" />
    <glyph glyph-name="Tcaron" unicode="&#x164;" horiz-adv-x="1259" 
d="M492 1539l-263 328h250l147 -195h6l147 195h250l-263 -328h-274zM813 0h-367v1147h-400v296h1167v-296h-400v-1147z" />
    <glyph glyph-name="tcaron" unicode="&#x165;" horiz-adv-x="894" 
d="M680 1757h257l-45 -511h-212v511zM178 1359h354v-246h201v-262h-201v-475q0 -117 129 -117q37 0 72 5v-252q-61 -14 -156 -14q-214 0 -306.5 71.5t-92.5 235.5v546h-149v262h149v246z" />
    <glyph glyph-name="Tbar" unicode="&#x166;" horiz-adv-x="1323" 
d="M1228 1147h-400v-343h288v-247h-288v-557h-367v557h-254v247h254v343h-400v296h1167v-296z" />
    <glyph glyph-name="tbar" unicode="&#x167;" horiz-adv-x="874" 
d="M775 491h-243v-115q0 -117 129 -117q37 0 72 5v-252q-61 -14 -156 -14q-214 0 -306.5 71.5t-92.5 235.5v186h-133v169h133v191h-149v262h149v246h354v-246h201v-262h-201v-191h243v-169z" />
    <glyph glyph-name="Utilde" unicode="&#x168;" horiz-adv-x="1461" 
d="M476 1443v-892q0 -127 66.5 -197.5t188.5 -70.5t188 70.5t66 197.5v892h367v-931q0 -243 -170 -390t-451 -147q-282 0 -452 147t-170 390v931h367zM878 1543q-48 0 -90.5 20t-67.5 43.5t-53.5 43.5t-51.5 20q-33 0 -50 -30.5t-19 -79.5h-181q0 131 67 207t167 76
q49 0 92 -20t68.5 -43.5t53.5 -43.5t51 -20q64 0 67 114h181q0 -130 -67.5 -208.5t-166.5 -78.5z" />
    <glyph glyph-name="utilde" unicode="&#x169;" horiz-adv-x="1256" 
d="M1167 1113v-1113h-345v210h-7q-79 -229 -324 -229q-183 0 -295 112t-112 306v714h354v-636q0 -100 49 -153.5t137 -53.5q86 0 137 59t51 156v628h355zM776 1258q-48 0 -90.5 20t-67.5 43.5t-53.5 43.5t-51.5 20q-33 0 -50 -30.5t-19 -79.5h-181q0 131 67 207t167 76
q49 0 92 -20t68.5 -43.5t53.5 -43.5t51 -20q64 0 67 114h181q0 -130 -67.5 -208.5t-166.5 -78.5z" />
    <glyph glyph-name="Umacron" unicode="&#x16a;" horiz-adv-x="1461" 
d="M476 1443v-892q0 -127 66.5 -197.5t188.5 -70.5t188 70.5t66 197.5v892h367v-931q0 -243 -170 -390t-451 -147q-282 0 -452 147t-170 390v931h367zM1092 1777v-163h-722v163h722z" />
    <glyph glyph-name="umacron" unicode="&#x16b;" horiz-adv-x="1256" 
d="M1167 1113v-1113h-345v210h-7q-79 -229 -324 -229q-183 0 -295 112t-112 306v714h354v-636q0 -100 49 -153.5t137 -53.5q86 0 137 59t51 156v628h355zM972 1449v-163h-688v163h688z" />
    <glyph glyph-name="Ubreve" unicode="&#x16c;" horiz-adv-x="1461" 
d="M476 1443v-892q0 -127 66.5 -197.5t188.5 -70.5t188 70.5t66 197.5v892h367v-931q0 -243 -170 -390t-451 -147q-282 0 -452 147t-170 390v931h367zM356 1865h208q3 -71 47.5 -115t119.5 -44t119.5 44t47.5 115h208q-4 -140 -104 -233t-271 -93t-271 93t-104 233z" />
    <glyph glyph-name="ubreve" unicode="&#x16d;" horiz-adv-x="1256" 
d="M1167 1113v-1113h-345v210h-7q-79 -229 -324 -229q-183 0 -295 112t-112 306v714h354v-636q0 -100 49 -153.5t137 -53.5q86 0 137 59t51 156v628h355zM250 1581h210q2 -71 47 -116t121 -45t121 45t47 116h210q-4 -142 -105 -235.5t-273 -93.5t-273 93.5t-105 235.5z" />
    <glyph glyph-name="Uring" unicode="&#x16e;" horiz-adv-x="1461" 
d="M731 1517q-88 0 -151.5 62t-63.5 147q0 87 63.5 148.5t151.5 61.5t151 -61.5t63 -148.5q0 -86 -63 -147.5t-151 -61.5zM731 1640q36 0 62 25.5t26 60.5q0 36 -26 61.5t-62 25.5t-62 -25.5t-26 -61.5q0 -35 26 -60.5t62 -25.5zM476 1443v-892q0 -127 66.5 -197.5
t188.5 -70.5t188 70.5t66 197.5v892h367v-931q0 -243 -170 -390t-451 -147q-282 0 -452 147t-170 390v931h367z" />
    <glyph glyph-name="uring" unicode="&#x16f;" horiz-adv-x="1256" 
d="M1167 1113v-1113h-345v210h-7q-79 -229 -324 -229q-183 0 -295 112t-112 306v714h354v-636q0 -100 49 -153.5t137 -53.5q86 0 137 59t51 156v628h355zM628 1223q-95 0 -164.5 67t-69.5 160t69 160t165 67q95 0 163.5 -67t68.5 -160t-68.5 -160t-163.5 -67zM628 1358
q38 0 66 27.5t28 64.5q0 38 -28 65.5t-66 27.5t-66.5 -27.5t-28.5 -65.5q0 -37 28.5 -64.5t66.5 -27.5z" />
    <glyph glyph-name="Uhungarumlaut" unicode="&#x170;" horiz-adv-x="1461" 
d="M476 1443v-892q0 -127 66.5 -197.5t188.5 -70.5t188 70.5t66 197.5v892h367v-931q0 -243 -170 -390t-451 -147q-282 0 -452 147t-170 390v931h367zM1079 1554h-267l232 316h310zM639 1554h-266l231 316h311z" />
    <glyph glyph-name="uhungarumlaut" unicode="&#x171;" horiz-adv-x="1256" 
d="M695 1270l185 315h282l-221 -315h-246zM295 1270l187 315h281l-222 -315h-246zM1167 1113v-1113h-345v210h-7q-79 -229 -324 -229q-183 0 -295 112t-112 306v714h354v-636q0 -100 49 -153.5t137 -53.5q86 0 137 59t51 156v628h355z" />
    <glyph glyph-name="Uogonek" unicode="&#x172;" horiz-adv-x="1461" 
d="M965 -479q-129 0 -210 62.5t-81 160.5q0 66 43.5 131.5t111.5 102.5v7q-38 -10 -98 -10q-282 0 -452 147t-170 390v931h367v-892q0 -127 67 -197.5t188 -70.5t187.5 70.5t66.5 197.5v892h367v-931q0 -273 -219 -433q-107 -77 -155.5 -139t-48.5 -122q0 -48 32 -75.5
t89 -27.5q49 0 71 8v-179q-57 -23 -156 -23z" />
    <glyph glyph-name="uogonek" unicode="&#x173;" horiz-adv-x="1256" 
d="M1116 -456q-57 -23 -156 -23q-129 0 -210 64.5t-81 166.5q0 70 42.5 135t110.5 101v222h-7q-79 -229 -324 -229q-183 0 -295 112t-112 306v714h354v-636q0 -100 49 -153.5t137 -53.5q86 0 137 59t51 156v628h355v-1113l-49 -7q-81 -17 -137.5 -68.5t-56.5 -114.5
q0 -43 31 -69t90 -26q51 0 71 8v-179z" />
    <glyph glyph-name="Wcircumflex" unicode="&#x174;" horiz-adv-x="2022" 
d="M874 1867h274l263 -328h-250l-147 194h-6l-147 -194h-250zM1007 901l-243 -901h-346l-377 1443h379l195 -975h8l241 975h294l241 -975h8l195 975h379l-377 -1443h-346l-243 901h-8z" />
    <glyph glyph-name="wcircumflex" unicode="&#x175;" horiz-adv-x="1729" 
d="M998 1582l261 -327h-256l-135 184h-8l-136 -184h-255l260 327h269zM1714 1113l-288 -1113h-382l-179 755h-7l-178 -755h-376l-289 1113h357l145 -791h7l174 791h338l176 -791h7l145 791h350z" />
    <glyph glyph-name="Ycircumflex" unicode="&#x176;" horiz-adv-x="1419" 
d="M893 0h-367v496l-497 947h394l287 -600h7l286 600h387l-497 -947v-496zM573 1867h274l263 -328h-250l-147 194h-6l-147 -194h-250z" />
    <glyph glyph-name="ycircumflex" unicode="&#x177;" horiz-adv-x="1194" 
d="M254 -407q-119 0 -129 2v268q5 -1 62 -1q176 0 194 98l5 31l-380 1122h391l205 -845h7l205 845h374l-358 -1111q-71 -222 -203.5 -315.5t-372.5 -93.5zM731 1582l261 -327h-256l-135 184h-8l-136 -184h-255l260 327h269z" />
    <glyph glyph-name="Ydieresis" unicode="&#x178;" horiz-adv-x="1419" 
d="M893 0h-367v496l-497 947h394l287 -600h7l286 600h387l-497 -947v-496zM493 1547q-62 0 -104.5 41.5t-42.5 99.5q0 59 42 100t105 41t105.5 -41t42.5 -100q0 -58 -42.5 -99.5t-105.5 -41.5zM926 1547q-63 0 -105 41t-42 100t42 100t105 41t105 -41t42 -100t-42 -100
t-105 -41z" />
    <glyph glyph-name="Zacute" unicode="&#x179;" horiz-adv-x="1307" 
d="M779 1554h-269l232 316h313zM84 0v233l686 907v7h-675v296h1106v-233l-683 -907v-7h705v-296h-1139z" />
    <glyph glyph-name="zacute" unicode="&#x17a;" horiz-adv-x="1095" 
d="M679 1269h-275l227 316h312zM68 0v189l529 651v7h-516v266h929v-217l-482 -623v-7h499v-266h-959z" />
    <glyph glyph-name="Zdotaccent" unicode="&#x17b;" horiz-adv-x="1307" 
d="M654 1548q-69 0 -116.5 47.5t-47.5 115.5t47.5 115.5t116.5 47.5t116.5 -47.5t47.5 -115.5t-47.5 -115.5t-116.5 -47.5zM84 0v233l686 907v7h-675v296h1106v-233l-683 -907v-7h705v-296h-1139z" />
    <glyph glyph-name="zdotaccent" unicode="&#x17c;" horiz-adv-x="1095" 
d="M546 1263q-69 0 -116.5 47.5t-47.5 114.5q0 66 47.5 113.5t116.5 47.5t117 -47.5t48 -113.5q0 -67 -48 -114.5t-117 -47.5zM68 0v189l529 651v7h-516v266h929v-217l-482 -623v-7h499v-266h-959z" />
    <glyph glyph-name="Zcaron" unicode="&#x17d;" horiz-adv-x="1307" 
d="M84 0v233l686 907v7h-675v296h1106v-233l-683 -907v-7h705v-296h-1139zM517 1539l-263 328h250l147 -195h6l147 195h250l-263 -328h-274z" />
    <glyph glyph-name="zcaron" unicode="&#x17e;" horiz-adv-x="1095" 
d="M682 1255h-269l-260 327h255l136 -184h8l135 184h256zM68 0v189l529 651v7h-516v266h929v-217l-482 -623v-7h499v-266h-959z" />
    <glyph glyph-name="florin" unicode="&#x192;" horiz-adv-x="1372" 
d="M1290 1422v-274q-69 32 -159 32q-94 0 -147 -46.5t-69 -143.5l-19 -119h339v-245h-378l-36 -221q-36 -222 -165 -325.5t-358 -103.5q-139 0 -216 36v277q76 -37 167 -37q94 0 143 45.5t66 148.5l29 180h-308v245h347l25 160q37 221 166.5 323t374.5 102q52 0 110.5 -10
t87.5 -24z" />
    <glyph glyph-name="Ohorn" unicode="&#x1a0;" horiz-adv-x="1652" 
d="M782 -25q-329 0 -521 200.5t-192 545.5t192 546t521 201q96 0 228 -28t212 -28q108 0 108 88v175h269v-252q0 -108 -57 -166t-163 -58h-62v-7q75 -61 126 -197.5t51 -273.5q0 -344 -191.5 -545t-520.5 -201zM782 273q155 0 247 121.5t92 326.5t-92 327t-247 122
t-247 -122t-92 -327t92 -326.5t247 -121.5z" />
    <glyph glyph-name="ohorn" unicode="&#x1a1;" horiz-adv-x="1345" 
d="M621 237q98 0 153 84.5t55 235.5q0 149 -55.5 234t-152.5 85t-152.5 -85.5t-55.5 -233.5q0 -151 55 -235.5t153 -84.5zM1187 529q0 -248 -153.5 -400.5t-405.5 -152.5q-270 0 -422 154t-152 427q0 268 152.5 424t414.5 156q82 0 170.5 -21.5t133.5 -21.5q60 0 85.5 19
t25.5 63v149h269v-237q0 -204 -200 -204h-41v-7q59 -54 91 -144.5t32 -203.5z" />
    <glyph glyph-name="Uhorn" unicode="&#x1af;" horiz-adv-x="1726" 
d="M731 -26q-281 0 -451.5 147t-170.5 390v932h367v-893q0 -127 67 -197t188 -70t187.5 70t66.5 197v893h382q74 0 74 71v194h269v-266q0 -107 -64 -167t-176 -60h-118v-704q0 -243 -170 -390t-451 -147z" />
    <glyph glyph-name="uhorn" unicode="&#x1b0;" horiz-adv-x="1521" 
d="M815 210q-38 -111 -119.5 -170t-204.5 -59q-183 0 -295 112t-112 306v714h354v-636q0 -100 49 -153.5t137 -53.5q85 0 136.5 58.5t51.5 156.5v628h369q35 0 54 18.5t19 52.5v162h269v-234q0 -107 -63.5 -167t-176.5 -60h-116v-885h-345v210h-7z" />
    <glyph glyph-name="u01C4" unicode="&#x1c4;" horiz-adv-x="2766" 
d="M109 1443h589q328 0 509.5 -185t181.5 -528q0 -345 -182 -537.5t-509 -192.5h-589v1443zM476 1147v-851h173q180 0 273.5 109t93.5 324q0 202 -96 310t-271 108h-173zM1543 0v233l686 907v7h-675v296h1106v-233l-683 -907v-7h705v-296h-1139zM1976 1539l-263 328h250
l147 -195h6l147 195h250l-263 -328h-274z" />
    <glyph glyph-name="u01C5" unicode="&#x1c5;" horiz-adv-x="2554" 
d="M109 1443h589q328 0 509.5 -185t181.5 -528q0 -345 -182 -537.5t-509 -192.5h-589v1443zM476 1147v-851h173q180 0 273.5 109t93.5 324q0 202 -96 310t-271 108h-173zM2141 1255h-269l-260 327h255l136 -184h8l135 184h256zM1527 0v189l529 651v7h-516v266h929v-217
l-482 -623v-7h499v-266h-959z" />
    <glyph glyph-name="u01C6" unicode="&#x1c6;" horiz-adv-x="2385" 
d="M499 -15q-207 0 -326 153t-119 421q0 265 120 417t328 152q119 0 207.5 -57.5t126.5 -152.5h7v597h355v-1515h-353v191h-6q-35 -91 -127 -148.5t-213 -57.5zM631 849q-99 0 -157 -78.5t-58 -213.5q0 -136 57.5 -214.5t157.5 -78.5q99 0 156.5 78t57.5 214
q0 135 -57.5 214t-156.5 79zM1971 1255h-269l-260 327h255l136 -184h8l135 184h256zM1357 0v189l529 651v7h-516v266h929v-217l-482 -623v-7h499v-266h-959z" />
    <glyph glyph-name="u01C7" unicode="&#x1c7;" horiz-adv-x="2342" 
d="M1157 470h353q1 -86 47.5 -136.5t125.5 -50.5q81 0 124 50.5t43 146.5v963h366v-965q0 -242 -139.5 -373.5t-389.5 -131.5q-243 0 -386.5 134t-143.5 363zM1073 296v-296h-964v1443h367v-1147h597z" />
    <glyph glyph-name="u01C8" unicode="&#x1c8;" horiz-adv-x="1669" 
d="M1578 1113v-1140q0 -169 -109.5 -260t-313.5 -91q-55 0 -103 5v253q20 -2 42 -2q69 0 99 25t30 83v1127h355zM1400 1205q-76 0 -129 50t-53 125q0 74 53 124.5t129 50.5t129.5 -50.5t53.5 -124.5q0 -75 -53 -125t-130 -50zM1073 296v-296h-964v1443h367v-1147h597z" />
    <glyph glyph-name="u01C9" unicode="&#x1c9;" horiz-adv-x="1082" 
d="M991 1113v-1140q0 -169 -109.5 -260t-313.5 -91q-56 0 -103 5v253q20 -2 42 -2q69 0 99 25t30 83v1127h355zM813 1205q-76 0 -129 50t-53 125q0 74 53 124.5t129 50.5t129.5 -50.5t53.5 -124.5q0 -75 -53 -125t-130 -50zM95 0v1515h354v-1515h-354z" />
    <glyph glyph-name="u01CA" unicode="&#x1ca;" horiz-adv-x="2690" 
d="M1504 470h353q1 -86 47.5 -136.5t125.5 -50.5q81 0 124 50.5t43 146.5v963h366v-965q0 -242 -139.5 -373.5t-389.5 -131.5q-243 0 -386.5 134t-143.5 363zM457 0h-348v1443h293l612 -839h8v839h348v-1443h-290l-615 847h-8v-847z" />
    <glyph glyph-name="u01CB" unicode="&#x1cb;" horiz-adv-x="2016" 
d="M1925 1113v-1140q0 -169 -109.5 -260t-313.5 -91q-56 0 -103 5v253q20 -2 42 -2q69 0 99 25t30 83v1127h355zM1747 1205q-76 0 -129 50t-53 125q0 74 53 124.5t129 50.5t129.5 -50.5t53.5 -124.5q0 -75 -53 -125t-130 -50zM457 0h-348v1443h293l612 -839h8v839h348v-1443
h-290l-615 847h-8v-847z" />
    <glyph glyph-name="u01CC" unicode="&#x1cc;" horiz-adv-x="1793" 
d="M1702 1113v-1140q0 -169 -109.5 -260t-313.5 -91q-55 0 -103 5v253q20 -2 42 -2q69 0 99 25t30 83v1127h355zM1524 1205q-76 0 -129 50t-53 125q0 74 53 124.5t129 50.5t129.5 -50.5t53.5 -124.5q0 -75 -53 -125t-130 -50zM89 0v1113h344v-209h7q92 228 345 228
q185 0 286 -110.5t101 -308.5v-713h-355v637q0 98 -46 152t-136 54q-89 0 -140.5 -59.5t-51.5 -155.5v-628h-354z" />
    <glyph glyph-name="Acaron" unicode="&#x1cd;" horiz-adv-x="1477" 
d="M1058 0l-91 317h-472l-92 -317h-374l485 1443h449l485 -1443h-390zM727 1137l-161 -556h329l-160 556h-8zM601 1539l-263 328h250l147 -195h6l147 195h250l-263 -328h-274z" />
    <glyph glyph-name="acaron" unicode="&#x1ce;" horiz-adv-x="1191" 
d="M546 231q88 0 149.5 47.5t61.5 122.5v77l-205 -14q-75 -5 -115.5 -36t-40.5 -82q0 -53 40.5 -84t109.5 -31zM421 -15q-159 0 -267.5 94.5t-108.5 242.5q0 155 115.5 241t335.5 100l261 16v64q0 67 -44.5 103.5t-120.5 36.5q-71 0 -117 -33.5t-54 -86.5h-319
q7 169 144.5 271.5t362.5 102.5q222 0 358 -103.5t136 -271.5v-762h-344v160h-7q-44 -82 -135.5 -128.5t-195.5 -46.5zM739 1255h-269l-260 327h255l136 -184h8l135 184h256z" />
    <glyph glyph-name="Icaron" unicode="&#x1cf;" horiz-adv-x="585" 
d="M476 0h-367v1443h367v-1443zM156 1539l-263 328h250l147 -195h6l147 195h250l-263 -328h-274z" />
    <glyph glyph-name="icaron" unicode="&#x1d0;" horiz-adv-x="537" 
d="M402 1255h-269l-260 327h255l136 -184h8l135 184h256zM91 0v1113h355v-1113h-355z" />
    <glyph glyph-name="Ocaron" unicode="&#x1d1;" horiz-adv-x="1564" 
d="M645 1539l-263 328h250l147 -195h6l147 195h250l-263 -328h-274zM782 1468q328 0 520 -201t192 -546t-192 -545.5t-520 -200.5q-329 0 -521 200.5t-192 545.5t192.5 546t520.5 201zM782 1170q-154 0 -246.5 -121.5t-92.5 -327.5q0 -205 92 -326.5t247 -121.5
q154 0 246.5 121.5t92.5 326.5q0 206 -92.5 327.5t-246.5 121.5z" />
    <glyph glyph-name="ocaron" unicode="&#x1d2;" horiz-adv-x="1242" 
d="M755 1255h-269l-260 327h255l136 -184h8l135 184h256zM621 -24q-265 0 -416 153.5t-151 427.5q0 269 153 424.5t414 155.5q262 0 414.5 -154.5t152.5 -425.5q0 -275 -151 -428t-416 -153zM621 237q98 0 153 83.5t55 236.5q0 149 -56 234t-152 85q-97 0 -152.5 -84.5
t-55.5 -234.5q0 -153 55 -236.5t153 -83.5z" />
    <glyph glyph-name="Ucaron" unicode="&#x1d3;" horiz-adv-x="1461" 
d="M594 1539l-263 328h250l147 -195h6l147 195h250l-263 -328h-274zM476 1443v-892q0 -127 66.5 -197.5t188.5 -70.5t188 70.5t66 197.5v892h367v-931q0 -243 -170 -390t-451 -147q-282 0 -452 147t-170 390v931h367z" />
    <glyph glyph-name="ucaron" unicode="&#x1d4;" horiz-adv-x="1256" 
d="M762 1255h-269l-260 327h255l136 -184h8l135 184h256zM1167 1113v-1113h-345v210h-7q-79 -229 -324 -229q-183 0 -295 112t-112 306v714h354v-636q0 -100 49 -153.5t137 -53.5q86 0 137 59t51 156v628h355z" />
    <glyph glyph-name="Udieresismacron" unicode="&#x1d5;" horiz-adv-x="1461" 
d="M476 1443v-892q0 -127 66.5 -197.5t188.5 -70.5t188 70.5t66 197.5v892h367v-931q0 -243 -170 -390t-451 -147q-282 0 -452 147t-170 390v931h367zM517 1825q62 0 103 -40t41 -98q0 -57 -41.5 -97.5t-102.5 -40.5t-102.5 40.5t-41.5 97.5q0 58 41 98t103 40zM370 2098
h722v-163h-722v163zM945 1825q62 0 103 -40t41 -98q0 -57 -41.5 -97.5t-102.5 -40.5t-102.5 40.5t-41.5 97.5q0 58 41 98t103 40z" />
    <glyph glyph-name="udieresismacron" unicode="&#x1d6;" horiz-adv-x="1256" 
d="M1167 1113v-1113h-345v210h-7q-79 -229 -324 -229q-183 0 -295 112t-112 306v714h354v-636q0 -100 49 -153.5t137 -53.5q86 0 137 59t51 156v628h355zM422 1256q-59 0 -99 39t-40 94q0 56 39.5 94.5t99.5 38.5t99.5 -38.5t39.5 -94.5q0 -55 -40 -94t-99 -39zM834 1256
q-59 0 -99 39t-40 94q0 56 40 94.5t99 38.5q60 0 99.5 -38.5t39.5 -94.5q0 -55 -40 -94t-99 -39zM972 1822v-163h-688v163h688z" />
    <glyph glyph-name="Udieresisacute" unicode="&#x1d7;" horiz-adv-x="1461" 
d="M596 1907l198 263h290l-238 -263h-250zM517 1549q-61 0 -102.5 40.5t-41.5 97.5q0 58 41 98t103 40t103 -40t41 -98q0 -57 -41.5 -97.5t-102.5 -40.5zM945 1549q-61 0 -102.5 40.5t-41.5 97.5q0 58 41 98t103 40t103 -40t41 -98q0 -57 -41.5 -97.5t-102.5 -40.5z
M476 1443v-892q0 -127 66.5 -197.5t188.5 -70.5t188 70.5t66 197.5v892h367v-931q0 -243 -170 -390t-451 -147q-282 0 -452 147t-170 390v931h367z" />
    <glyph glyph-name="udieresisacute" unicode="&#x1d8;" horiz-adv-x="1256" 
d="M502 1637l192 275h291l-229 -275h-254zM411 1257q-62 0 -104.5 41.5t-42.5 99.5q0 59 42 100t105 41t105.5 -41t42.5 -100q0 -58 -42.5 -99.5t-105.5 -41.5zM844 1257q-63 0 -105 41t-42 100t42 100t105 41t105 -41t42 -100t-42 -100t-105 -41zM1167 1113v-1113h-345v210
h-7q-79 -229 -324 -229q-183 0 -295 112t-112 306v714h354v-636q0 -100 49 -153.5t137 -53.5q86 0 137 59t51 156v628h355z" />
    <glyph glyph-name="Udieresiscaron" unicode="&#x1d9;" horiz-adv-x="1461" 
d="M604 1908l-251 281h247l121 -145h20l121 145h247l-251 -281h-254zM517 1825q62 0 103 -40t41 -98q0 -57 -41.5 -97.5t-102.5 -40.5t-102.5 40.5t-41.5 97.5q0 58 41 98t103 40zM945 1825q62 0 103 -40t41 -98q0 -57 -41.5 -97.5t-102.5 -40.5t-102.5 40.5t-41.5 97.5
q0 58 41 98t103 40zM476 1443v-892q0 -127 66.5 -197.5t188.5 -70.5t188 70.5t66 197.5v892h367v-931q0 -243 -170 -390t-451 -147q-282 0 -452 147t-170 390v931h367z" />
    <glyph glyph-name="udieresiscaron" unicode="&#x1da;" horiz-adv-x="1256" 
d="M422 1256q-59 0 -99.5 39.5t-40.5 95.5t40 95t100 39t100 -39t40 -95t-40.5 -95.5t-99.5 -39.5zM834 1256q-59 0 -99.5 39.5t-40.5 95.5t40 95t100 39t100 -39t40 -95t-40 -95.5t-100 -39.5zM768 1609h-280l-256 317h255l137 -180h8l137 180h255zM1167 1113v-1113h-345
v210h-7q-79 -229 -324 -229q-183 0 -295 112t-112 306v714h354v-636q0 -100 49 -153.5t137 -53.5q86 0 137 59t51 156v628h355z" />
    <glyph glyph-name="Udieresisgrave" unicode="&#x1db;" horiz-adv-x="1461" 
d="M866 1907h-250l-238 263h290zM517 1549q-61 0 -102.5 40.5t-41.5 97.5q0 58 41 98t103 40t103 -40t41 -98q0 -57 -41.5 -97.5t-102.5 -40.5zM945 1549q-61 0 -102.5 40.5t-41.5 97.5q0 58 41 98t103 40t103 -40t41 -98q0 -57 -41.5 -97.5t-102.5 -40.5zM476 1443v-892
q0 -127 66.5 -197.5t188.5 -70.5t188 70.5t66 197.5v892h367v-931q0 -243 -170 -390t-451 -147q-282 0 -452 147t-170 390v931h367z" />
    <glyph glyph-name="udieresisgrave" unicode="&#x1dc;" horiz-adv-x="1256" 
d="M762 1655h-251l-233 271h306zM411 1257q-62 0 -104.5 41.5t-42.5 99.5q0 59 42 100t105 41t105.5 -41t42.5 -100q0 -58 -42.5 -99.5t-105.5 -41.5zM844 1257q-63 0 -105 41t-42 100t42 100t105 41t105 -41t42 -100t-42 -100t-105 -41zM1167 1113v-1113h-345v210h-7
q-79 -229 -324 -229q-183 0 -295 112t-112 306v714h354v-636q0 -100 49 -153.5t137 -53.5q86 0 137 59t51 156v628h355z" />
    <glyph glyph-name="Adieresismacron" unicode="&#x1de;" horiz-adv-x="1477" 
d="M1058 0l-91 317h-472l-92 -317h-374l485 1443h449l485 -1443h-390zM727 1137l-161 -556h329l-160 556h-8zM524 1825q62 0 103 -40t41 -98q0 -57 -41.5 -97.5t-102.5 -40.5t-102.5 40.5t-41.5 97.5q0 58 41 98t103 40zM377 2098h722v-163h-722v163zM952 1825q62 0 103 -40
t41 -98q0 -57 -41.5 -97.5t-102.5 -40.5t-102.5 40.5t-41.5 97.5q0 58 41 98t103 40z" />
    <glyph glyph-name="adieresismacron" unicode="&#x1df;" horiz-adv-x="1191" 
d="M546 231q88 0 149.5 47.5t61.5 122.5v77l-205 -14q-75 -5 -115.5 -36t-40.5 -82q0 -53 40.5 -84t109.5 -31zM421 -15q-159 0 -267.5 94.5t-108.5 242.5q0 155 115.5 241t335.5 100l261 16v64q0 67 -44.5 103.5t-120.5 36.5q-71 0 -117 -33.5t-54 -86.5h-319
q7 169 144.5 271.5t362.5 102.5q222 0 358 -103.5t136 -271.5v-762h-344v160h-7q-44 -82 -135.5 -128.5t-195.5 -46.5zM399 1256q-59 0 -99 39t-40 94q0 56 39.5 94.5t99.5 38.5t99.5 -38.5t39.5 -94.5q0 -55 -40 -94t-99 -39zM811 1256q-59 0 -99 39t-40 94q0 56 40 94.5
t99 38.5q60 0 99.5 -38.5t39.5 -94.5q0 -55 -40 -94t-99 -39zM949 1822v-163h-688v163h688z" />
    <glyph glyph-name="Adotmacron" unicode="&#x1e0;" horiz-adv-x="1477" 
d="M1058 0l-91 317h-472l-92 -317h-374l485 1443h449l485 -1443h-390zM727 1137l-161 -556h329l-160 556h-8zM738 1545q-64 0 -106 41.5t-42 100.5t42 100.5t106 41.5t106 -41.5t42 -100.5t-42 -100.5t-106 -41.5zM1099 2098v-163h-722v163h722z" />
    <glyph glyph-name="adotmacron" unicode="&#x1e1;" horiz-adv-x="1191" 
d="M546 231q88 0 149.5 47.5t61.5 122.5v77l-205 -14q-75 -5 -115.5 -36t-40.5 -82q0 -53 40.5 -84t109.5 -31zM421 -15q-159 0 -267.5 94.5t-108.5 242.5q0 155 115.5 241t335.5 100l261 16v64q0 67 -44.5 103.5t-120.5 36.5q-71 0 -117 -33.5t-54 -86.5h-319
q7 169 144.5 271.5t362.5 102.5q222 0 358 -103.5t136 -271.5v-762h-344v160h-7q-44 -82 -135.5 -128.5t-195.5 -46.5zM605 1246q-69 0 -116.5 47.5t-47.5 113.5q0 67 47.5 114t116.5 47t116.5 -47t47.5 -114q0 -66 -47.5 -113.5t-116.5 -47.5zM949 1830v-163h-688v163h688z
" />
    <glyph glyph-name="AEmacron" unicode="&#x1e2;" horiz-adv-x="2073" 
d="M845 1167l-220 -575h343v575h-123zM968 0v327h-439l-127 -327h-363l575 1443h1336v-295h-655v-290h618v-270h-618v-293h655v-295h-982zM1835 1777v-163h-722v163h722z" />
    <glyph glyph-name="aemacron" unicode="&#x1e3;" horiz-adv-x="1883" 
d="M1299 -24q-140 0 -249 53t-163 145h-9q-55 -90 -157 -139.5t-242 -49.5q-200 0 -317 92.5t-117 243.5q0 154 115 241t335 100l261 15v55q0 65 -49 108t-124 43q-72 0 -122.5 -33.5t-56.5 -86.5h-312q7 170 140.5 272t342.5 102q127 0 221.5 -39t143.5 -105h9
q117 144 361 144q234 0 376.5 -150t142.5 -407v-101h-749v-22q0 -102 62 -165.5t162 -63.5q73 0 126 32.5t72 89.5h320q-26 -171 -167 -272.5t-356 -101.5zM1292 885q-85 0 -142.5 -56.5t-64.5 -146.5h409q-4 93 -59.5 148t-142.5 55zM538 224q90 0 154 52.5t64 124.5v75
l-217 -15q-75 -6 -118 -36.5t-43 -81.5q0 -52 46 -85.5t114 -33.5zM1278 1449v-163h-688v163h688z" />
    <glyph glyph-name="Gcaron" unicode="&#x1e6;" horiz-adv-x="1510" 
d="M616 1539l-263 328h250l147 -195h6l147 195h250l-263 -328h-274zM1437 610q0 -296 -174 -465.5t-481 -169.5q-335 0 -524 197.5t-189 551.5q0 350 188 547t516 197q261 0 441 -140t208 -361h-363q-27 96 -103 151t-182 55q-156 0 -243.5 -117t-87.5 -327q0 -213 94 -336
t253 -123q124 0 204 67t88 176l1 22h-264v252h618v-177z" />
    <glyph glyph-name="gcaron" unicode="&#x1e7;" horiz-adv-x="1287" 
d="M771 1255h-269l-260 327h255l136 -184h8l135 184h256zM630 274q100 0 157.5 74.5t57.5 208.5t-58 213t-157 79t-156.5 -78.5t-57.5 -212.5q0 -135 57 -209.5t157 -74.5zM624 -413q-236 0 -384 92.5t-155 247.5h344q11 -47 67.5 -75.5t133.5 -28.5q97 0 155 46.5t58 126.5
v211h-7q-34 -89 -125.5 -142.5t-213.5 -53.5q-201 0 -322 146.5t-121 402.5q0 265 120 416.5t329 151.5q118 0 207.5 -57.5t128.5 -152.5h6v195h353v-1091q0 -198 -157 -316.5t-417 -118.5z" />
    <glyph glyph-name="Kcaron" unicode="&#x1e8;" horiz-adv-x="1401" 
d="M476 0h-367v1443h367v-634h8l491 634h394l-503 -641l532 -802h-431l-368 564l-123 -156v-408zM559 1539l-263 328h250l147 -195h6l147 195h250l-263 -328h-274z" />
    <glyph glyph-name="kcaron" unicode="&#x1e9;" horiz-adv-x="1179" 
d="M456 687l327 426h396l-400 -477l423 -636h-408l-277 424l-68 -79v-345h-354v1515h354v-828h7zM134 1611l-263 328h250l147 -195h6l147 195h250l-263 -328h-274z" />
    <glyph glyph-name="Oogonek" unicode="&#x1ea;" horiz-adv-x="1564" 
d="M1035 -479q-129 0 -210 62.5t-81 160.5q0 67 44 133t111 101v7q-46 -10 -117 -10q-329 0 -521 200.5t-192 545.5t192 546t521 201t520.5 -201t191.5 -546q0 -416 -284 -638q-112 -85 -161.5 -147.5t-49.5 -117.5q0 -48 32 -75.5t89 -27.5q51 0 71 8v-179
q-57 -23 -156 -23zM782 1170q-155 0 -247 -122t-92 -327t92 -326.5t247 -121.5t247 121.5t92 326.5t-92 327t-247 122z" />
    <glyph glyph-name="oogonek" unicode="&#x1eb;" horiz-adv-x="1242" 
d="M835 -479q-128 0 -205 64t-77 167q0 146 135 221v7q-31 -4 -67 -4q-265 0 -416 153.5t-151 427.5q0 269 153 424.5t414 155.5q262 0 414.5 -154.5t152.5 -425.5q0 -153 -55 -274.5t-154 -201.5q-93 -75 -136.5 -138t-43.5 -125q0 -50 31.5 -76.5t90.5 -26.5q50 0 70 8
v-179q-55 -23 -156 -23zM621 237q98 0 153 83.5t55 236.5q0 149 -56 234t-152 85q-97 0 -152.5 -84.5t-55.5 -234.5q0 -153 55 -236.5t153 -83.5z" />
    <glyph glyph-name="Oogonekmacron" unicode="&#x1ec;" horiz-adv-x="1563" 
d="M1035 -479q-129 0 -210 62.5t-81 160.5q0 67 44 133t111 101v7q-46 -10 -117 -10q-329 0 -521 200.5t-192 545.5t192 546t521 201t520.5 -201t191.5 -546q0 -416 -284 -638q-112 -85 -161.5 -147.5t-49.5 -117.5q0 -48 32 -75.5t89 -27.5q51 0 71 8v-179
q-57 -23 -156 -23zM782 1170q-155 0 -247 -122t-92 -327t92 -326.5t247 -121.5t247 121.5t92 326.5t-92 327t-247 122zM1143 1777v-163h-722v163h722z" />
    <glyph glyph-name="oogonekmacron" unicode="&#x1ed;" horiz-adv-x="1242" 
d="M965 1449v-163h-688v163h688zM835 -479q-128 0 -205 64t-77 167q0 146 135 221v7q-31 -4 -67 -4q-265 0 -416 153.5t-151 427.5q0 269 153 424.5t414 155.5q262 0 414.5 -154.5t152.5 -425.5q0 -153 -55 -274.5t-154 -201.5q-93 -75 -136.5 -138t-43.5 -125
q0 -50 31.5 -76.5t90.5 -26.5q50 0 70 8v-179q-55 -23 -156 -23zM621 237q98 0 153 83.5t55 236.5q0 149 -56 234t-152 85q-97 0 -152.5 -84.5t-55.5 -234.5q0 -153 55 -236.5t153 -83.5z" />
    <glyph glyph-name="u01F1" unicode="&#x1f1;" horiz-adv-x="2766" 
d="M1543 0v233l686 907v7h-675v296h1106v-233l-683 -907v-7h705v-296h-1139zM109 1443h589q328 0 509.5 -185t181.5 -528q0 -345 -182 -537.5t-509 -192.5h-589v1443zM476 1147v-851h173q180 0 273.5 109t93.5 324q0 202 -96 310t-271 108h-173z" />
    <glyph glyph-name="u01F2" unicode="&#x1f2;" horiz-adv-x="2554" 
d="M1527 0v189l529 651v7h-516v266h929v-217l-482 -623v-7h499v-266h-959zM109 1443h589q328 0 509.5 -185t181.5 -528q0 -345 -182 -537.5t-509 -192.5h-589v1443zM476 1147v-851h173q180 0 273.5 109t93.5 324q0 202 -96 310t-271 108h-173z" />
    <glyph glyph-name="u01F3" unicode="&#x1f3;" horiz-adv-x="2385" 
d="M1357 0v189l529 651v7h-516v266h929v-217l-482 -623v-7h499v-266h-959zM499 -15q-207 0 -326 153t-119 421q0 265 120 417t328 152q119 0 207.5 -57.5t126.5 -152.5h7v597h355v-1515h-353v191h-6q-35 -91 -127 -148.5t-213 -57.5zM631 849q-99 0 -157 -78.5t-58 -213.5
q0 -136 57.5 -214.5t157.5 -78.5q99 0 156.5 78t57.5 214q0 135 -57.5 214t-156.5 79z" />
    <glyph glyph-name="Gacute" unicode="&#x1f4;" horiz-adv-x="1510" 
d="M878 1554h-269l232 316h313zM1437 610q0 -296 -174 -465.5t-481 -169.5q-335 0 -524 197.5t-189 551.5q0 350 188 547t516 197q261 0 441 -140t208 -361h-363q-27 96 -103 151t-182 55q-156 0 -243.5 -117t-87.5 -327q0 -213 94 -336t253 -123q124 0 204 67t88 176l1 22
h-264v252h618v-177z" />
    <glyph glyph-name="gacute" unicode="&#x1f5;" horiz-adv-x="1287" 
d="M768 1269h-275l227 316h312zM630 274q100 0 157.5 74.5t57.5 208.5t-58 213t-157 79t-156.5 -78.5t-57.5 -212.5q0 -135 57 -209.5t157 -74.5zM624 -413q-236 0 -384 92.5t-155 247.5h344q11 -47 67.5 -75.5t133.5 -28.5q97 0 155 46.5t58 126.5v211h-7
q-34 -89 -125.5 -142.5t-213.5 -53.5q-201 0 -322 146.5t-121 402.5q0 265 120 416.5t329 151.5q118 0 207.5 -57.5t128.5 -152.5h6v195h353v-1091q0 -198 -157 -316.5t-417 -118.5z" />
    <glyph glyph-name="Ngrave" unicode="&#x1f8;" horiz-adv-x="1479" 
d="M611 1561l-276 316h313l232 -316h-269zM457 0h-348v1443h293l612 -839h8v839h348v-1443h-290l-615 847h-8v-847z" />
    <glyph glyph-name="ngrave" unicode="&#x1f9;" horiz-adv-x="1256" 
d="M777 1269h-275l-264 316h312zM89 0v1113h344v-209h7q92 228 345 228q185 0 286 -110.5t101 -308.5v-713h-355v637q0 98 -46 152t-136 54q-89 0 -140.5 -59.5t-51.5 -155.5v-628h-354z" />
    <glyph glyph-name="Aringacute" unicode="&#x1fa;" horiz-adv-x="1477" 
d="M1058 0l-91 317h-472l-92 -317h-374l485 1443h449l485 -1443h-390zM727 1137l-161 -556h329l-160 556h-8zM738 1508q-91 0 -150.5 58t-59.5 146q0 87 59.5 145t150.5 58q90 0 150 -57.5t60 -145.5t-60 -146t-150 -58zM738 1631q34 0 57.5 23.5t23.5 57.5t-23 57t-58 23
t-58.5 -23t-23.5 -57q0 -35 23.5 -58t58.5 -23zM737 2176h288l-166 -198h-238z" />
    <glyph glyph-name="aringacute" unicode="&#x1fb;" horiz-adv-x="1191" 
d="M546 231q88 0 149.5 47.5t61.5 122.5v77l-205 -14q-75 -5 -115.5 -36t-40.5 -82q0 -53 40.5 -84t109.5 -31zM421 -15q-159 0 -267.5 94.5t-108.5 242.5q0 155 115.5 241t335.5 100l261 16v64q0 67 -44.5 103.5t-120.5 36.5q-71 0 -117 -33.5t-54 -86.5h-319
q7 169 144.5 271.5t362.5 102.5q222 0 358 -103.5t136 -271.5v-762h-344v160h-7q-44 -82 -135.5 -128.5t-195.5 -46.5zM607 1224q-99 0 -163.5 62.5t-64.5 157.5t64.5 158t163.5 63t163.5 -63t64.5 -158t-64.5 -157.5t-163.5 -62.5zM520 1444q0 -37 25 -61.5t62 -24.5
t62 24.5t25 61.5q0 38 -25 62.5t-62 24.5t-62 -25t-25 -62zM501 1743l139 222h277l-183 -222h-233z" />
    <glyph glyph-name="AEacute" unicode="&#x1fc;" horiz-adv-x="2073" 
d="M1599 1554h-269l232 316h313zM845 1167l-220 -575h343v575h-123zM968 0v327h-439l-127 -327h-363l575 1443h1336v-295h-655v-290h618v-270h-618v-293h655v-295h-982z" />
    <glyph glyph-name="aeacute" unicode="&#x1fd;" horiz-adv-x="1883" 
d="M1065 1269h-275l227 316h312zM1299 -24q-140 0 -249 53t-163 145h-9q-55 -90 -157 -139.5t-242 -49.5q-200 0 -317 92.5t-117 243.5q0 154 115 241t335 100l261 15v55q0 65 -49 108t-124 43q-72 0 -122.5 -33.5t-56.5 -86.5h-312q7 170 140.5 272t342.5 102
q127 0 221.5 -39t143.5 -105h9q117 144 361 144q234 0 376.5 -150t142.5 -407v-101h-749v-22q0 -102 62 -165.5t162 -63.5q73 0 126 32.5t72 89.5h320q-26 -171 -167 -272.5t-356 -101.5zM1292 885q-85 0 -142.5 -56.5t-64.5 -146.5h409q-4 93 -59.5 148t-142.5 55zM538 224
q90 0 154 52.5t64 124.5v75l-217 -15q-75 -6 -118 -36.5t-43 -81.5q0 -52 46 -85.5t114 -33.5z" />
    <glyph glyph-name="Oslashacute" unicode="&#x1fe;" horiz-adv-x="1564" 
d="M1208 1870l-276 -316h-269l232 316h313zM1055 1008l-427 -696q70 -39 154 -39q154 0 246.5 121.5t92.5 326.5q0 171 -66 287zM535 394l436 714q-81 62 -189 62q-154 0 -246.5 -121.5t-92.5 -327.5q0 -205 92 -327zM1332 1459l-86 -140q120 -98 184 -250.5t64 -347.5
q0 -345 -192 -545.5t-520 -200.5q-179 0 -323 63l-70 -115l-103 62l68 111q-137 95 -211 255.5t-74 369.5q0 345 192.5 546t520.5 201q205 0 359 -81l78 128z" />
    <glyph glyph-name="oslashacute" unicode="&#x1ff;" horiz-adv-x="1242" 
d="M1016 1585l-264 -316h-275l227 316h312zM804 727l-279 -464q41 -26 96 -26q98 0 153 83.5t55 236.5q0 97 -25 170zM445 365l285 474q-48 37 -109 37q-97 0 -152.5 -84.5t-55.5 -234.5q0 -116 32 -192zM1052 1137l-67 -110q203 -156 203 -470q0 -275 -151 -428t-416 -153
q-137 0 -245 42l-63 -105l-103 61l60 100q-216 152 -216 483q0 269 153 424.5t414 155.5q143 0 258 -49l64 106z" />
    <glyph glyph-name="Adblgrave" unicode="&#x200;" horiz-adv-x="1477" 
d="M1058 0l-91 317h-472l-92 -317h-374l485 1443h449l485 -1443h-390zM727 1137l-161 -556h329l-160 556h-8zM830 1554l-276 316h311l231 -316h-266zM390 1554l-275 316h310l232 -316h-267z" />
    <glyph glyph-name="adblgrave" unicode="&#x201;" horiz-adv-x="1191" 
d="M546 231q88 0 149.5 47.5t61.5 122.5v77l-205 -14q-75 -5 -115.5 -36t-40.5 -82q0 -53 40.5 -84t109.5 -31zM421 -15q-159 0 -267.5 94.5t-108.5 242.5q0 155 115.5 241t335.5 100l261 16v64q0 67 -44.5 103.5t-120.5 36.5q-71 0 -117 -33.5t-54 -86.5h-319
q7 169 144.5 271.5t362.5 102.5q222 0 358 -103.5t136 -271.5v-762h-344v160h-7q-44 -82 -135.5 -128.5t-195.5 -46.5zM538 1270h-246l-221 315h282zM938 1270h-246l-222 315h282z" />
    <glyph glyph-name="Ainvertedbreve" unicode="&#x202;" horiz-adv-x="1477" 
d="M1058 0l-91 317h-472l-92 -317h-374l485 1443h449l485 -1443h-390zM727 1137l-161 -556h329l-160 556h-8zM363 1539q4 140 104 233t271 93t271 -93t104 -233h-208q-3 71 -47.5 115.5t-119.5 44.5t-119.5 -44.5t-47.5 -115.5h-208z" />
    <glyph glyph-name="ainvertedbreve" unicode="&#x203;" horiz-adv-x="1191" 
d="M546 231q88 0 149.5 47.5t61.5 122.5v77l-205 -14q-75 -5 -115.5 -36t-40.5 -82q0 -53 40.5 -84t109.5 -31zM421 -15q-159 0 -267.5 94.5t-108.5 242.5q0 155 115.5 241t335.5 100l261 16v64q0 67 -44.5 103.5t-120.5 36.5q-71 0 -117 -33.5t-54 -86.5h-319
q7 169 144.5 271.5t362.5 102.5q222 0 358 -103.5t136 -271.5v-762h-344v160h-7q-44 -82 -135.5 -128.5t-195.5 -46.5zM227 1255q4 141 104.5 234.5t273.5 93.5t273.5 -93.5t104.5 -234.5h-210q-2 71 -47.5 116t-120.5 45t-120.5 -45t-47.5 -116h-210z" />
    <glyph glyph-name="Edblgrave" unicode="&#x204;" horiz-adv-x="1196" 
d="M695 1554l-276 316h311l231 -316h-266zM255 1554l-275 316h310l232 -316h-267zM1098 296v-296h-989v1443h989v-296h-622v-287h585v-270h-585v-294h622z" />
    <glyph glyph-name="edblgrave" unicode="&#x205;" horiz-adv-x="1205" 
d="M611 885q-85 0 -143 -57t-65 -146h414q-5 92 -61.5 147.5t-144.5 55.5zM825 350h320q-26 -171 -168.5 -272.5t-358.5 -101.5q-264 0 -414 153t-150 422t149 427.5t403 158.5q249 0 397.5 -151.5t148.5 -405.5v-101h-753v-22q0 -102 62 -165.5t162 -63.5q74 0 128 32.5
t74 89.5zM538 1270h-246l-221 315h282zM938 1270h-246l-222 315h282z" />
    <glyph glyph-name="Einvertedbreve" unicode="&#x206;" horiz-adv-x="1196" 
d="M1098 296v-296h-989v1443h989v-296h-622v-287h585v-270h-585v-294h622zM228 1539q4 140 104 233t271 93t271 -93t104 -233h-208q-3 71 -47.5 115.5t-119.5 44.5t-119.5 -44.5t-47.5 -115.5h-208z" />
    <glyph glyph-name="einvertedbreve" unicode="&#x207;" horiz-adv-x="1205" 
d="M611 885q-85 0 -143 -57t-65 -146h414q-5 92 -61.5 147.5t-144.5 55.5zM825 350h320q-26 -171 -168.5 -272.5t-358.5 -101.5q-264 0 -414 153t-150 422t149 427.5t403 158.5q249 0 397.5 -151.5t148.5 -405.5v-101h-753v-22q0 -102 62 -165.5t162 -63.5q74 0 128 32.5
t74 89.5zM227 1255q4 141 104.5 234.5t273.5 93.5t273.5 -93.5t104.5 -234.5h-210q-2 71 -47.5 116t-120.5 45t-120.5 -45t-47.5 -116h-210z" />
    <glyph glyph-name="Idblgrave" unicode="&#x208;" horiz-adv-x="585" 
d="M476 0h-367v1443h367v-1443zM385 1554l-276 316h311l231 -316h-266zM-55 1554l-275 316h310l232 -316h-267z" />
    <glyph glyph-name="idblgrave" unicode="&#x209;" horiz-adv-x="537" 
d="M91 0v1113h355v-1113h-355zM201 1270h-246l-221 315h282zM601 1270h-246l-222 315h282z" />
    <glyph glyph-name="Iinvertedbreve" unicode="&#x20a;" horiz-adv-x="585" 
d="M476 0h-367v1443h367v-1443zM-82 1539q4 140 104 233t271 93t271 -93t104 -233h-208q-3 71 -47.5 115.5t-119.5 44.5t-119.5 -44.5t-47.5 -115.5h-208z" />
    <glyph glyph-name="iinvertedbreve" unicode="&#x20b;" horiz-adv-x="537" 
d="M91 0v1113h355v-1113h-355zM-110 1255q4 141 104.5 234.5t273.5 93.5t273.5 -93.5t104.5 -234.5h-210q-2 71 -47 116t-121 45t-121 -45t-47 -116h-210z" />
    <glyph glyph-name="Odblgrave" unicode="&#x20c;" horiz-adv-x="1564" 
d="M874 1554l-276 316h311l231 -316h-266zM434 1554l-275 316h310l232 -316h-267zM782 1468q328 0 520 -201t192 -546t-192 -545.5t-520 -200.5q-329 0 -521 200.5t-192 545.5t192.5 546t520.5 201zM782 1170q-154 0 -246.5 -121.5t-92.5 -327.5q0 -205 92 -326.5
t247 -121.5q154 0 246.5 121.5t92.5 326.5q0 206 -92.5 327.5t-246.5 121.5z" />
    <glyph glyph-name="odblgrave" unicode="&#x20d;" horiz-adv-x="1242" 
d="M621 -24q-265 0 -416 153.5t-151 427.5q0 269 153 424.5t414 155.5q262 0 414.5 -154.5t152.5 -425.5q0 -275 -151 -428t-416 -153zM621 237q98 0 153 83.5t55 236.5q0 149 -56 234t-152 85q-97 0 -152.5 -84.5t-55.5 -234.5q0 -153 55 -236.5t153 -83.5zM554 1270h-246
l-221 315h282zM954 1270h-246l-222 315h282z" />
    <glyph glyph-name="Oinvertedbreve" unicode="&#x20e;" horiz-adv-x="1564" 
d="M407 1539q4 140 104 233t271 93t271 -93t104 -233h-208q-3 71 -47.5 115.5t-119.5 44.5t-119.5 -44.5t-47.5 -115.5h-208zM782 1468q328 0 520 -201t192 -546t-192 -545.5t-520 -200.5q-329 0 -521 200.5t-192 545.5t192.5 546t520.5 201zM782 1170q-154 0 -246.5 -121.5
t-92.5 -327.5q0 -205 92 -326.5t247 -121.5q154 0 246.5 121.5t92.5 326.5q0 206 -92.5 327.5t-246.5 121.5z" />
    <glyph glyph-name="oinvertedbreve" unicode="&#x20f;" horiz-adv-x="1242" 
d="M621 -24q-265 0 -416 153.5t-151 427.5q0 269 153 424.5t414 155.5q262 0 414.5 -154.5t152.5 -425.5q0 -275 -151 -428t-416 -153zM621 237q98 0 153 83.5t55 236.5q0 149 -56 234t-152 85q-97 0 -152.5 -84.5t-55.5 -234.5q0 -153 55 -236.5t153 -83.5zM243 1255
q4 141 104.5 234.5t273.5 93.5t273.5 -93.5t104.5 -234.5h-210q-2 71 -47.5 116t-120.5 45t-120.5 -45t-47.5 -116h-210z" />
    <glyph glyph-name="Rdblgrave" unicode="&#x210;" horiz-adv-x="1358" 
d="M751 1554l-276 316h311l231 -316h-266zM311 1554l-275 316h310l232 -316h-267zM476 1166v-410h217q101 0 158 55t57 149q0 93 -59 149.5t-157 56.5h-216zM476 505v-505h-367v1443h620q268 0 411 -125t143 -351q0 -136 -65 -246.5t-181 -161.5l288 -559h-412l-247 505
h-190z" />
    <glyph glyph-name="rdblgrave" unicode="&#x211;" horiz-adv-x="816" 
d="M89 0v1113h344v-209h7q61 224 263 224q49 0 91 -14v-304q-46 20 -115 20q-114 0 -175 -62.5t-61 -179.5v-588h-354zM356 1270h-246l-221 315h282zM756 1270h-246l-222 315h282z" />
    <glyph glyph-name="Rinvertedbreve" unicode="&#x212;" horiz-adv-x="1358" 
d="M476 1166v-410h217q101 0 158 55t57 149q0 93 -59 149.5t-157 56.5h-216zM476 505v-505h-367v1443h620q268 0 411 -125t143 -351q0 -136 -65 -246.5t-181 -161.5l288 -559h-412l-247 505h-190zM284 1539q4 140 104 233t271 93t271 -93t104 -233h-208q-3 71 -47.5 115.5
t-119.5 44.5t-119.5 -44.5t-47.5 -115.5h-208z" />
    <glyph glyph-name="rinvertedbreve" unicode="&#x213;" horiz-adv-x="816" 
d="M89 0v1113h344v-209h7q61 224 263 224q49 0 91 -14v-304q-46 20 -115 20q-114 0 -175 -62.5t-61 -179.5v-588h-354zM45 1255q4 141 104.5 234.5t273.5 93.5t273.5 -93.5t104.5 -234.5h-210q-2 71 -47.5 116t-120.5 45t-120.5 -45t-47.5 -116h-210z" />
    <glyph glyph-name="Udblgrave" unicode="&#x214;" horiz-adv-x="1461" 
d="M823 1554l-276 316h311l231 -316h-266zM383 1554l-275 316h310l232 -316h-267zM476 1443v-892q0 -127 66.5 -197.5t188.5 -70.5t188 70.5t66 197.5v892h367v-931q0 -243 -170 -390t-451 -147q-282 0 -452 147t-170 390v931h367z" />
    <glyph glyph-name="udblgrave" unicode="&#x215;" horiz-adv-x="1256" 
d="M1167 1113v-1113h-345v210h-7q-79 -229 -324 -229q-183 0 -295 112t-112 306v714h354v-636q0 -100 49 -153.5t137 -53.5q86 0 137 59t51 156v628h355zM561 1270h-246l-221 315h282zM961 1270h-246l-222 315h282z" />
    <glyph glyph-name="Uinvertedbreve" unicode="&#x216;" horiz-adv-x="1461" 
d="M476 1443v-892q0 -127 66.5 -197.5t188.5 -70.5t188 70.5t66 197.5v892h367v-931q0 -243 -170 -390t-451 -147q-282 0 -452 147t-170 390v931h367zM356 1539q4 140 104 233t271 93t271 -93t104 -233h-208q-3 71 -47.5 115.5t-119.5 44.5t-119.5 -44.5t-47.5 -115.5h-208z
" />
    <glyph glyph-name="uinvertedbreve" unicode="&#x217;" horiz-adv-x="1256" 
d="M1167 1113v-1113h-345v210h-7q-79 -229 -324 -229q-183 0 -295 112t-112 306v714h354v-636q0 -100 49 -153.5t137 -53.5q86 0 137 59t51 156v628h355zM250 1255q4 141 104.5 234.5t273.5 93.5t273.5 -93.5t104.5 -234.5h-210q-2 71 -47 116t-121 45t-121 -45t-47 -116
h-210z" />
    <glyph glyph-name="Scommaaccent" unicode="&#x218;" horiz-adv-x="1334" 
d="M63 418h349q10 -73 83.5 -119t176.5 -46q106 0 171 42.5t65 108.5q0 60 -50.5 93.5t-174.5 59.5l-189 37q-199 38 -301 143.5t-102 270.5q0 208 160.5 334t413.5 126q268 0 421.5 -120.5t156.5 -325.5h-338q-5 78 -70 123t-166 45q-96 0 -154.5 -40t-58.5 -106
q0 -58 50.5 -93.5t164.5 -58.5l187 -35q213 -41 313 -141t100 -271q0 -215 -165 -342.5t-444 -127.5q-277 0 -436.5 117t-162.5 326zM640 -477h-265l138 333h310z" />
    <glyph glyph-name="scommaaccent" unicode="&#x219;" horiz-adv-x="1128" 
d="M69 776q0 166 133.5 263.5t360.5 97.5q225 0 357 -100t134 -271h-324q-2 60 -48.5 95.5t-122.5 35.5q-67 0 -108 -27t-41 -71q0 -67 128 -94l230 -48q167 -35 241.5 -107t74.5 -198q0 -171 -142 -273.5t-375 -102.5q-237 0 -375 100.5t-149 272.5h344q8 -63 57.5 -98
t129.5 -35q74 0 116.5 25.5t42.5 70.5q0 35 -28.5 56t-94.5 35l-209 44q-163 34 -247.5 118t-84.5 211zM537 -477h-265l138 333h310z" />
    <glyph glyph-name="Tcommaaccent" unicode="&#x21a;" horiz-adv-x="1259" 
d="M603 -477h-265l138 333h310zM813 0h-367v1147h-400v296h1167v-296h-400v-1147z" />
    <glyph glyph-name="tcommaaccent" unicode="&#x21b;" horiz-adv-x="797" 
d="M428 -477h-265l138 333h310zM178 1359h354v-246h201v-262h-201v-475q0 -117 129 -117q37 0 72 5v-252q-61 -14 -156 -14q-214 0 -306.5 71.5t-92.5 235.5v546h-149v262h149v246z" />
    <glyph glyph-name="Hcaron" unicode="&#x21e;" horiz-adv-x="1527" 
d="M1417 0h-366v581h-575v-581h-367v1443h367v-566h575v566h366v-1443zM626 1539l-263 328h250l147 -195h6l147 195h250l-263 -328h-274z" />
    <glyph glyph-name="hcaron" unicode="&#x21f;" horiz-adv-x="1269" 
d="M95 0v1515h347v-611h7q44 112 133 170t216 58q185 0 286 -111t101 -309v-712h-355v636q0 98 -47.5 152.5t-137.5 54.5q-92 0 -144 -59.5t-52 -156.5v-627h-354zM134 1611l-263 328h250l147 -195h6l147 195h250l-263 -328h-274z" />
    <glyph glyph-name="Adotaccent" unicode="&#x226;" horiz-adv-x="1477" 
d="M1058 0l-91 317h-472l-92 -317h-374l485 1443h449l485 -1443h-390zM727 1137l-161 -556h329l-160 556h-8zM738 1548q-69 0 -116.5 47.5t-47.5 115.5t47.5 115.5t116.5 47.5t116.5 -47.5t47.5 -115.5t-47.5 -115.5t-116.5 -47.5z" />
    <glyph glyph-name="adotaccent" unicode="&#x227;" horiz-adv-x="1191" 
d="M546 231q88 0 149.5 47.5t61.5 122.5v77l-205 -14q-75 -5 -115.5 -36t-40.5 -82q0 -53 40.5 -84t109.5 -31zM421 -15q-159 0 -267.5 94.5t-108.5 242.5q0 155 115.5 241t335.5 100l261 16v64q0 67 -44.5 103.5t-120.5 36.5q-71 0 -117 -33.5t-54 -86.5h-319
q7 169 144.5 271.5t362.5 102.5q222 0 358 -103.5t136 -271.5v-762h-344v160h-7q-44 -82 -135.5 -128.5t-195.5 -46.5zM603 1263q-69 0 -116.5 47.5t-47.5 114.5q0 66 47.5 113.5t116.5 47.5t117 -47.5t48 -113.5q0 -67 -48 -114.5t-117 -47.5z" />
    <glyph glyph-name="Ecedilla" unicode="&#x228;" horiz-adv-x="1196" 
d="M1098 1147h-622v-287h585v-270h-585v-294h622v-296h-390l-48 -102q80 0 126.5 -43.5t46.5 -119.5q0 -92 -65 -141.5t-187 -49.5q-91 0 -137 15v131q36 -12 105 -12q100 0 100 45q0 28 -25 39.5t-87 11.5h-56v114l56 112h-428v1443h989v-296z" />
    <glyph glyph-name="ecedilla" unicode="&#x229;" horiz-adv-x="1205" 
d="M403 682h414q-5 92 -61.5 147.5t-144.5 55.5q-85 0 -143 -57t-65 -146zM1152 479h-753v-22q0 -102 62 -165.5t162 -63.5q74 0 128 32.5t74 89.5h320q-23 -153 -141 -251.5t-301 -118.5l-39 -82q80 0 126.5 -43.5t46.5 -119.5q0 -92 -65 -141.5t-187 -49.5q-91 0 -137 15
v131q36 -12 105 -12q100 0 100 45q0 28 -25 39.5t-87 11.5h-56v114l46 93q-225 25 -351 174.5t-126 395.5q0 269 149 427.5t403 158.5q249 0 397.5 -151.5t148.5 -405.5v-101z" />
    <glyph glyph-name="Odieresismacron" unicode="&#x22a;" horiz-adv-x="1564" 
d="M782 1468q328 0 520 -201t192 -546t-192 -545.5t-520 -200.5q-329 0 -521 200.5t-192 545.5t192.5 546t520.5 201zM782 1170q-154 0 -246.5 -121.5t-92.5 -327.5q0 -205 92 -326.5t247 -121.5q154 0 246.5 121.5t92.5 326.5q0 206 -92.5 327.5t-246.5 121.5zM568 1825
q62 0 103 -40t41 -98q0 -57 -41.5 -97.5t-102.5 -40.5t-102.5 40.5t-41.5 97.5q0 58 41 98t103 40zM421 2098h722v-163h-722v163zM996 1825q62 0 103 -40t41 -98q0 -57 -41.5 -97.5t-102.5 -40.5t-102.5 40.5t-41.5 97.5q0 58 41 98t103 40z" />
    <glyph glyph-name="odieresismacron" unicode="&#x22b;" horiz-adv-x="1242" 
d="M415 1256q-59 0 -99 39t-40 94q0 56 39.5 94.5t99.5 38.5t99.5 -38.5t39.5 -94.5q0 -55 -40 -94t-99 -39zM827 1256q-59 0 -99 39t-40 94q0 56 40 94.5t99 38.5q60 0 99.5 -38.5t39.5 -94.5q0 -55 -40 -94t-99 -39zM965 1822v-163h-688v163h688zM621 -24
q-265 0 -416 153.5t-151 427.5q0 269 153 424.5t414 155.5q262 0 414.5 -154.5t152.5 -425.5q0 -275 -151 -428t-416 -153zM621 237q98 0 153 83.5t55 236.5q0 149 -56 234t-152 85q-97 0 -152.5 -84.5t-55.5 -234.5q0 -153 55 -236.5t153 -83.5z" />
    <glyph glyph-name="Otildemacron" unicode="&#x22c;" horiz-adv-x="1564" 
d="M923 1536q-48 0 -91 20t-68.5 44t-54.5 44t-52 20q-33 0 -50 -30t-19 -79h-180q0 131 65.5 206.5t166.5 75.5q49 0 92.5 -20t69 -44t54 -44t51.5 -20q64 0 67 114h181q0 -131 -66 -209t-166 -78zM1143 2098v-163h-722v163h722zM782 1468q328 0 520 -201t192 -546
t-192 -545.5t-520 -200.5q-329 0 -521 200.5t-192 545.5t192.5 546t520.5 201zM782 1170q-154 0 -246.5 -121.5t-92.5 -327.5q0 -205 92 -326.5t247 -121.5q154 0 246.5 121.5t92.5 326.5q0 206 -92.5 327.5t-246.5 121.5z" />
    <glyph glyph-name="otildemacron" unicode="&#x22d;" horiz-adv-x="1242" 
d="M769 1255q-48 0 -90.5 20t-67.5 43.5t-53.5 43.5t-51.5 20q-33 0 -50 -30.5t-19 -79.5h-181q0 131 67 207t167 76q49 0 92 -20t68.5 -43.5t53.5 -43.5t51 -20q64 0 67 114h181q0 -130 -67.5 -208.5t-166.5 -78.5zM965 1822v-163h-688v163h688zM621 -24q-265 0 -416 153.5
t-151 427.5q0 269 153 424.5t414 155.5q262 0 414.5 -154.5t152.5 -425.5q0 -275 -151 -428t-416 -153zM621 237q98 0 153 83.5t55 236.5q0 149 -56 234t-152 85q-97 0 -152.5 -84.5t-55.5 -234.5q0 -153 55 -236.5t153 -83.5z" />
    <glyph glyph-name="Odotaccent" unicode="&#x22e;" horiz-adv-x="1564" 
d="M782 1548q-69 0 -116.5 47.5t-47.5 115.5t47.5 115.5t116.5 47.5t116.5 -47.5t47.5 -115.5t-47.5 -115.5t-116.5 -47.5zM782 1468q328 0 520 -201t192 -546t-192 -545.5t-520 -200.5q-329 0 -521 200.5t-192 545.5t192.5 546t520.5 201zM782 1170q-154 0 -246.5 -121.5
t-92.5 -327.5q0 -205 92 -326.5t247 -121.5q154 0 246.5 121.5t92.5 326.5q0 206 -92.5 327.5t-246.5 121.5z" />
    <glyph glyph-name="odotaccent" unicode="&#x22f;" horiz-adv-x="1242" 
d="M619 1263q-69 0 -116.5 47.5t-47.5 114.5q0 66 47.5 113.5t116.5 47.5t117 -47.5t48 -113.5q0 -67 -48 -114.5t-117 -47.5zM621 -24q-265 0 -416 153.5t-151 427.5q0 269 153 424.5t414 155.5q262 0 414.5 -154.5t152.5 -425.5q0 -275 -151 -428t-416 -153zM621 237
q98 0 153 83.5t55 236.5q0 149 -56 234t-152 85q-97 0 -152.5 -84.5t-55.5 -234.5q0 -153 55 -236.5t153 -83.5z" />
    <glyph glyph-name="Odotaccentmacron" unicode="&#x230;" horiz-adv-x="1564" 
d="M782 1545q-64 0 -106 41.5t-42 100.5t42 100.5t106 41.5t106 -41.5t42 -100.5t-42 -100.5t-106 -41.5zM1143 2098v-163h-722v163h722zM782 1468q328 0 520 -201t192 -546t-192 -545.5t-520 -200.5q-329 0 -521 200.5t-192 545.5t192.5 546t520.5 201zM782 1170
q-154 0 -246.5 -121.5t-92.5 -327.5q0 -205 92 -326.5t247 -121.5q154 0 246.5 121.5t92.5 326.5q0 206 -92.5 327.5t-246.5 121.5z" />
    <glyph glyph-name="odotaccentmacron" unicode="&#x231;" horiz-adv-x="1242" 
d="M621 -24q-265 0 -416 153.5t-151 427.5q0 269 153 424.5t414 155.5q262 0 414.5 -154.5t152.5 -425.5q0 -275 -151 -428t-416 -153zM621 237q98 0 153 83.5t55 236.5q0 149 -56 234t-152 85q-97 0 -152.5 -84.5t-55.5 -234.5q0 -153 55 -236.5t153 -83.5zM621 1246
q-69 0 -116.5 47.5t-47.5 113.5q0 67 47.5 114t116.5 47t116.5 -47t47.5 -114q0 -66 -47.5 -113.5t-116.5 -47.5zM965 1830v-163h-688v163h688z" />
    <glyph glyph-name="Ymacron" unicode="&#x232;" horiz-adv-x="1419" 
d="M893 0h-367v496l-497 947h394l287 -600h7l286 600h387l-497 -947v-496zM1071 1777v-163h-722v163h722z" />
    <glyph glyph-name="ymacron" unicode="&#x233;" horiz-adv-x="1194" 
d="M254 -407q-119 0 -129 2v268q5 -1 62 -1q176 0 194 98l5 31l-380 1122h391l205 -845h7l205 845h374l-358 -1111q-71 -222 -203.5 -315.5t-372.5 -93.5zM941 1449v-163h-688v163h688z" />
    <glyph glyph-name="dotlessj" unicode="&#x237;" horiz-adv-x="536" 
d="M446 1113v-1140q0 -169 -109.5 -260t-313.5 -91q-55 0 -103 5v253q20 -2 42 -2q69 0 99 25t30 83v1127h355z" />
    <glyph glyph-name="quoteright" unicode="&#x2bc;" horiz-adv-x="622" 
d="M396 851h-283l90 592h324z" />
    <glyph glyph-name="quoteright" unicode="&#x2019;" horiz-adv-x="622" 
d="M396 851h-283l90 592h324z" />
    <glyph glyph-name="circumflex" unicode="&#x2c6;" horiz-adv-x="1014" 
d="M641 1582l261 -327h-256l-135 184h-8l-136 -184h-255l260 327h269z" />
    <glyph glyph-name="caron" unicode="&#x2c7;" horiz-adv-x="1014" 
d="M641 1255h-269l-260 327h255l136 -184h8l135 184h256z" />
    <glyph glyph-name="breve" unicode="&#x2d8;" horiz-adv-x="1000" 
d="M122 1581h210q2 -71 47 -116t121 -45t121 45t47 116h210q-4 -142 -105 -235.5t-273 -93.5t-273 93.5t-105 235.5z" />
    <glyph glyph-name="dotaccent" unicode="&#x2d9;" horiz-adv-x="976" 
d="M486 1263q-69 0 -116.5 47.5t-47.5 114.5q0 66 47.5 113.5t116.5 47.5t117 -47.5t48 -113.5q0 -67 -48 -114.5t-117 -47.5z" />
    <glyph glyph-name="ring" unicode="&#x2da;" horiz-adv-x="1024" 
d="M512 1223q-95 0 -164.5 67t-69.5 160t69 160t165 67q95 0 163.5 -67t68.5 -160t-68.5 -160t-163.5 -67zM512 1358q38 0 66 27.5t28 64.5q0 38 -28 65.5t-66 27.5t-66.5 -27.5t-28.5 -65.5q0 -37 28.5 -64.5t66.5 -27.5z" />
    <glyph glyph-name="ogonek" unicode="&#x2db;" horiz-adv-x="1000" 
d="M706 -280v-171q-57 -21 -147 -21q-112 0 -182.5 60.5t-70.5 157.5q0 79 40.5 141t126.5 113h178q-130 -82 -130 -187q0 -45 32 -73t82 -28q38 0 71 8z" />
    <glyph glyph-name="tilde" unicode="&#x2dc;" horiz-adv-x="1013" 
d="M646 1258q-48 0 -90.5 20t-67.5 43.5t-53.5 43.5t-51.5 20q-33 0 -50 -30.5t-19 -79.5h-181q0 131 67 207t167 76q49 0 92 -20t68.5 -43.5t53.5 -43.5t51 -20q64 0 67 114h181q0 -130 -67.5 -208.5t-166.5 -78.5z" />
    <glyph glyph-name="hungarumlaut" unicode="&#x2dd;" horiz-adv-x="1000" 
d="M468 1270l185 315h282l-221 -315h-246zM68 1270l187 315h281l-222 -315h-246z" />
    <glyph glyph-name="gravecmb" unicode="&#x300;" 
d="M148 1269h-275l-264 316h312z" />
    <glyph glyph-name="acutecmb" unicode="&#x301;" 
d="M131 1269h-275l227 316h312z" />
    <glyph glyph-name="circumflexcmb" unicode="&#x302;" 
d="M134 1582l261 -327h-256l-135 184h-8l-136 -184h-255l260 327h269z" />
    <glyph glyph-name="tildecmb" unicode="&#x303;" 
d="M148 1258q-48 0 -90.5 20t-67.5 43.5t-53.5 43.5t-51.5 20q-33 0 -50 -30.5t-19 -79.5h-181q0 131 67 207t167 76q49 0 92 -20t68.5 -43.5t53.5 -43.5t51 -20q64 0 67 114h181q0 -130 -67.5 -208.5t-166.5 -78.5z" />
    <glyph glyph-name="macroncmb" unicode="&#x304;" 
d="M344 1449v-163h-688v163h688z" />
    <glyph glyph-name="brevecmb" unicode="&#x306;" 
d="M-378 1581h210q2 -71 47 -116t121 -45t121 45t47 116h210q-4 -142 -105 -235.5t-273 -93.5t-273 93.5t-105 235.5z" />
    <glyph glyph-name="dotaccentcmb" unicode="&#x307;" 
d="M-2 1263q-69 0 -116.5 47.5t-47.5 114.5q0 66 47.5 113.5t116.5 47.5t117 -47.5t48 -113.5q0 -67 -48 -114.5t-117 -47.5z" />
    <glyph glyph-name="dieresiscmb" unicode="&#x308;" 
d="M-217 1257q-62 0 -104.5 41.5t-42.5 99.5q0 59 42 100t105 41t105.5 -41t42.5 -100q0 -58 -42.5 -99.5t-105.5 -41.5zM216 1257q-63 0 -105 41t-42 100t42 100t105 41t105 -41t42 -100t-42 -100t-105 -41z" />
    <glyph glyph-name="hookabovecmb" unicode="&#x309;" 
d="M-171 1513v150q68 28 158 28q117 0 186.5 -60.5t69.5 -162.5q0 -74 -53.5 -140t-149.5 -111l-97 116q53 26 75 52.5t22 65.5q0 36 -30 58.5t-79 22.5q-51 0 -102 -19z" />
    <glyph glyph-name="ringcmb" unicode="&#x30a;" 
d="M0 1223q-95 0 -164.5 67t-69.5 160t69 160t165 67q95 0 163.5 -67t68.5 -160t-68.5 -160t-163.5 -67zM0 1358q38 0 66 27.5t28 64.5q0 38 -28 65.5t-66 27.5t-66.5 -27.5t-28.5 -65.5q0 -37 28.5 -64.5t66.5 -27.5z" />
    <glyph glyph-name="hungarumlautcmb" unicode="&#x30b;" 
d="M67 1270l185 315h282l-221 -315h-246zM-333 1270l187 315h281l-222 -315h-246z" />
    <glyph glyph-name="caroncmb" unicode="&#x30c;" 
d="M134 1255h-269l-260 327h255l136 -184h8l135 184h256z" />
    <glyph glyph-name="dblgravecmb" unicode="&#x30f;" 
d="M-67 1270h-246l-221 315h282zM333 1270h-246l-222 315h282z" />
    <glyph glyph-name="invertedbrevecmb" unicode="&#x311;" 
d="M-378 1255q4 141 104.5 234.5t273.5 93.5t273.5 -93.5t104.5 -234.5h-210q-2 71 -47 116t-121 45t-121 -45t-47 -116h-210z" />
    <glyph glyph-name="horncmb" unicode="&#x31b;" 
d="M0 898v222q29 -13 54 -10q60 7 60 101v151h255v-209q0 -128 -65 -201.5t-177 -73.5q-87 0 -127 20z" />
    <glyph glyph-name="dotbelowcmb" unicode="&#x323;" 
d="M0 -492q-69 0 -116.5 47.5t-47.5 115.5t47.5 115.5t116.5 47.5t116.5 -47.5t47.5 -115.5t-47.5 -115.5t-116.5 -47.5z" />
    <glyph glyph-name="dieresisbelowcmb" unicode="&#x324;" 
d="M-217 -454q-62 0 -104.5 41.5t-42.5 99.5q0 59 42 100t105 41t105.5 -41t42.5 -100q0 -58 -42.5 -99.5t-105.5 -41.5zM216 -454q-63 0 -105 41t-42 100t42 100t105 41t105 -41t42 -100t-42 -100t-105 -41z" />
    <glyph glyph-name="ringbelowcmb" unicode="&#x325;" 
d="M0 -592q-95 0 -164.5 67t-69.5 160t69 160t165 67q95 0 163.5 -67t68.5 -160t-68.5 -160t-163.5 -67zM0 -457q38 0 66 27.5t28 64.5q0 38 -28 65.5t-66 27.5t-66.5 -27.5t-28.5 -65.5q0 -37 28.5 -64.5t66.5 -27.5z" />
    <glyph glyph-name="commabelowcmb" unicode="&#x326;" 
d="M-26 -477h-265l138 333h310z" />
    <glyph glyph-name="cedillacmb" unicode="&#x327;" 
d="M-122 -226v114l63 126l164 -14l-48 -102q80 0 126.5 -43.5t46.5 -119.5q0 -92 -65 -141.5t-187 -49.5q-90 0 -137 15v131q36 -12 105 -12q100 0 100 45q0 28 -25 39.5t-87 11.5h-56z" />
    <glyph glyph-name="ogonekcmb" unicode="&#x328;" 
d="M207 -280v-171q-57 -21 -147 -21q-112 0 -182.5 60.5t-70.5 157.5q0 79 40.5 141t126.5 113h178q-130 -82 -130 -187q0 -45 32 -73t82 -28q38 0 71 8z" />
    <glyph glyph-name="circumflexbelowcmb" unicode="&#x32d;" 
d="M-137 -156h274l263 -328h-250l-147 194h-6l-147 -194h-250z" />
    <glyph glyph-name="brevebelowcmb" unicode="&#x32e;" 
d="M-375 -165h208q3 -71 47.5 -115t119.5 -44t119.5 44t47.5 115h208q-4 -140 -104 -233t-271 -93t-271 93t-104 233z" />
    <glyph glyph-name="tildebelowcmb" unicode="&#x330;" 
d="M147 -447q-48 0 -90.5 20t-67.5 43.5t-53.5 43.5t-51.5 20q-33 0 -50 -30.5t-19 -79.5h-181q0 131 67 207t167 76q49 0 92 -20t68.5 -43.5t53.5 -43.5t51 -20q64 0 67 114h181q0 -130 -67.5 -208.5t-166.5 -78.5z" />
    <glyph glyph-name="macronbelowcmb" unicode="&#x331;" 
d="M361 -235v-163h-722v163h722z" />
    <glyph glyph-name="greekquestionmark" unicode="&#x37e;" horiz-adv-x="595" 
d="M297 691q-77 0 -131 54.5t-54 131.5t54 131t131 54q78 0 132 -54t54 -131t-54 -131.5t-132 -54.5zM318 -278h-267l74 583h322z" />
    <glyph glyph-name="tonosgreek" unicode="&#x384;" horiz-adv-x="908" 
d="M237 1269l83 334h351l-155 -334h-279z" />
    <glyph glyph-name="dieresistonosgreek" unicode="&#x385;" horiz-adv-x="1352" 
d="M303 1257q-63 0 -105 41t-42 100t42 100t105 41t105 -41t42 -100t-42 -100t-105 -41zM1049 1257q-62 0 -104.5 41.5t-42.5 99.5q0 59 42 100t105 41t105 -41t42 -100t-42 -100t-105 -41zM748 1270h-223l23 333h334z" />
    <glyph glyph-name="Alphatonosgreek" unicode="&#x386;" horiz-adv-x="1611" 
d="M1192 0l-91 317h-472l-92 -317h-374l485 1443h449l485 -1443h-390zM861 1137l-161 -556h329l-160 556h-8zM342 1109h-263l75 334h352z" />
    <glyph glyph-name="anoteleia" unicode="&#x387;" horiz-adv-x="691" 
d="M345 741q-77 0 -131 54.5t-54 131.5t54 131.5t131 54.5q78 0 132 -54.5t54 -131.5t-54 -131.5t-132 -54.5z" />
    <glyph glyph-name="Epsilontonosgreek" unicode="&#x388;" horiz-adv-x="1670" 
d="M292 1109h-263l75 334h352zM1572 296v-296h-989v1443h989v-296h-622v-287h585v-270h-585v-294h622z" />
    <glyph glyph-name="Etatonosgreek" unicode="&#x389;" horiz-adv-x="2001" 
d="M292 1109h-263l75 334h352zM1891 0h-366v581h-575v-581h-367v1443h367v-566h575v566h366v-1443z" />
    <glyph glyph-name="Iotatonosgreek" unicode="&#x38a;" horiz-adv-x="1059" 
d="M950 0h-367v1443h367v-1443zM292 1109h-263l75 334h352z" />
    <glyph glyph-name="Omicrontonosgreek" unicode="&#x38c;" horiz-adv-x="1855" 
d="M1073 1468q328 0 520 -201t192 -546t-192 -545.5t-520 -200.5q-329 0 -521 200.5t-192 545.5t192.5 546t520.5 201zM1073 1170q-154 0 -246.5 -121.5t-92.5 -327.5q0 -205 92 -326.5t247 -121.5q154 0 246.5 121.5t92.5 326.5q0 206 -92.5 327.5t-246.5 121.5zM287 1109
h-263l75 334h352z" />
    <glyph glyph-name="Upsilontonosgreek" unicode="&#x38e;" horiz-adv-x="1907" 
d="M288 1109h-263l75 334h352zM1381 0h-367v496l-497 947h394l287 -600h7l286 600h387l-497 -947v-496z" />
    <glyph glyph-name="Omegatonosgreek" unicode="&#x38f;" horiz-adv-x="1889" 
d="M1449 785q0 180 -97 282.5t-256 102.5t-256 -102.5t-97 -282.5q0 -153 60 -257t178 -174v-354h-604v280h282v7q-129 72 -205.5 211.5t-76.5 317.5q0 291 199.5 471.5t519.5 180.5t519.5 -180.5t199.5 -471.5q0 -178 -76.5 -317.5t-205.5 -211.5v-7h282v-280h-604v354
q118 70 178 174t60 257zM294 1109h-263l75 334h352z" />
    <glyph glyph-name="iotadieresistonosgreek" unicode="&#x390;" horiz-adv-x="687" 
d="M93 1113h355v-737q0 -117 129 -117q29 0 71 5l10 -252q-65 -14 -165 -14q-214 0 -307 71.5t-93 235.5v808zM-74 1257q-63 0 -105 41t-42 100t42 100t105 41t105 -41t42 -100t-42 -100t-105 -41zM672 1257q-62 0 -104.5 41.5t-42.5 99.5q0 59 42 100t105 41t105 -41
t42 -100t-42 -100t-105 -41zM371 1270h-223l23 333h334z" />
    <glyph glyph-name="Alphagreek" unicode="&#x391;" horiz-adv-x="1477" 
d="M1058 0l-91 317h-472l-92 -317h-374l485 1443h449l485 -1443h-390zM727 1137l-161 -556h329l-160 556h-8z" />
    <glyph glyph-name="Betagreek" unicode="&#x392;" horiz-adv-x="1352" 
d="M802 0h-693v1443h675q213 0 334.5 -96.5t121.5 -263.5q0 -120 -81 -208t-202 -105v-8q148 -7 249 -105t101 -241q0 -190 -137 -303t-368 -113zM476 1183v-328h193q100 0 156.5 44.5t56.5 122.5q0 76 -51.5 118.5t-143.5 42.5h-211zM476 260h222q114 0 175 48.5t61 139.5
q0 88 -62 136t-176 48h-220v-372z" />
    <glyph glyph-name="Gammagreek" unicode="&#x393;" horiz-adv-x="1124" 
d="M476 0h-367v1443h962v-296h-595v-1147z" />
    <glyph glyph-name="Deltagreek" unicode="&#x394;" horiz-adv-x="1445" 
d="M1394 0h-1343v196l447 1247h449l447 -1247v-196zM430 303v-8h552v8l-270 843h-7z" />
    <glyph glyph-name="Epsilongreek" unicode="&#x395;" horiz-adv-x="1196" 
d="M1098 296v-296h-989v1443h989v-296h-622v-287h585v-270h-585v-294h622z" />
    <glyph glyph-name="Zetagreek" unicode="&#x396;" horiz-adv-x="1307" 
d="M84 0v233l686 907v7h-675v296h1106v-233l-683 -907v-7h705v-296h-1139z" />
    <glyph glyph-name="Etagreek" unicode="&#x397;" horiz-adv-x="1527" 
d="M1417 0h-366v581h-575v-581h-367v1443h367v-566h575v566h366v-1443z" />
    <glyph glyph-name="Thetagreek" unicode="&#x398;" horiz-adv-x="1626" 
d="M1043 585h-462v262h462v-262zM814 1468q353 0 548 -201t195 -545q0 -343 -198 -545t-545 -202q-348 0 -546.5 202t-198.5 545q0 344 195.5 545t549.5 201zM814 1170q-179 0 -277 -118t-98 -330q0 -213 98 -331t277 -118q178 0 276 118t98 331q0 212 -98 330t-276 118z
" />
    <glyph glyph-name="Iotagreek" unicode="&#x399;" horiz-adv-x="585" 
d="M476 0h-367v1443h367v-1443z" />
    <glyph glyph-name="Kappagreek" unicode="&#x39a;" horiz-adv-x="1401" 
d="M476 0h-367v1443h367v-634h8l491 634h394l-503 -641l532 -802h-431l-368 564l-123 -156v-408z" />
    <glyph glyph-name="Lambdagreek" unicode="&#x39b;" horiz-adv-x="1451" 
d="M1018 0l-294 1119h-8l-297 -1119h-390l473 1443h448l473 -1443h-405z" />
    <glyph glyph-name="Mugreek" unicode="&#x39c;" horiz-adv-x="1802" 
d="M1693 1443v-1443h-323v901h-7l-357 -886h-210l-356 886h-8v-901h-323v1443h424l364 -927h8l364 927h424z" />
    <glyph glyph-name="Nugreek" unicode="&#x39d;" horiz-adv-x="1479" 
d="M457 0h-348v1443h293l612 -839h8v839h348v-1443h-290l-615 847h-8v-847z" />
    <glyph glyph-name="Xigreek" unicode="&#x39e;" horiz-adv-x="1298" 
d="M98 1443h1102v-303h-1102v303zM1113 584h-928v279h928v-279zM98 303h1102v-303h-1102v303z" />
    <glyph glyph-name="Omicrongreek" unicode="&#x39f;" horiz-adv-x="1564" 
d="M782 1468q328 0 520 -201t192 -546t-192 -545.5t-520 -200.5q-329 0 -521 200.5t-192 545.5t192.5 546t520.5 201zM782 1170q-154 0 -246.5 -121.5t-92.5 -327.5q0 -205 92 -326.5t247 -121.5q154 0 246.5 121.5t92.5 326.5q0 206 -92.5 327.5t-246.5 121.5z" />
    <glyph glyph-name="Pigreek" unicode="&#x3a0;" horiz-adv-x="1507" 
d="M1397 0h-366v1148h-555v-1148h-367v1443h1288v-1443z" />
    <glyph glyph-name="Rhogreek" unicode="&#x3a1;" horiz-adv-x="1315" 
d="M109 1443h633q233 0 376 -140t143 -371q0 -230 -150 -369.5t-392 -139.5h-243v-423h-367v1443zM476 1162v-463h166q118 0 183 60t65 172t-64.5 171.5t-181.5 59.5h-168z" />
    <glyph glyph-name="Sigmagreek" unicode="&#x3a3;" horiz-adv-x="1284" 
d="M534 303v-7h666v-296h-1116v213l363 510l-340 469v251h1069v-296h-610v-7l279 -404v-7z" />
    <glyph glyph-name="Taugreek" unicode="&#x3a4;" horiz-adv-x="1259" 
d="M813 0h-367v1147h-400v296h1167v-296h-400v-1147z" />
    <glyph glyph-name="Upsilongreek" unicode="&#x3a5;" horiz-adv-x="1419" 
d="M893 0h-367v496l-497 947h394l287 -600h7l286 600h387l-497 -947v-496z" />
    <glyph glyph-name="Phigreek" unicode="&#x3a6;" horiz-adv-x="1871" 
d="M1460 712q0 177 -94.5 283.5t-265.5 124.5v-816q171 17 265.5 124t94.5 284zM411 712q0 -177 94.5 -284t265.5 -124v816q-171 -18 -265.5 -124.5t-94.5 -283.5zM1100 -131h-329v155q-317 15 -516 205t-199 483t199 483t516 205v155h329v-155q317 -15 516 -205t199 -483
t-199 -483t-516 -205v-155z" />
    <glyph glyph-name="Chigreek" unicode="&#x3a7;" horiz-adv-x="1458" 
d="M42 0l441 723v8l-440 712h428l265 -488h7l267 488h407l-459 -716v-7l455 -720h-412l-280 468h-8l-281 -468h-390z" />
    <glyph glyph-name="Psigreek" unicode="&#x3a8;" horiz-adv-x="1740" 
d="M1042 0h-344v293q-286 7 -447.5 171t-161.5 442v537h344v-544q0 -290 265 -318v862h344v-862q265 28 265 318v544h344v-537q0 -279 -162 -442.5t-447 -170.5v-293z" />
    <glyph glyph-name="Omegagreek" unicode="&#x3a9;" horiz-adv-x="1586" 
d="M1146 785q0 180 -97 282.5t-256 102.5t-256 -102.5t-97 -282.5q0 -153 60 -257t178 -174v-354h-604v280h282v7q-129 72 -205.5 211.5t-76.5 317.5q0 291 199.5 471.5t519.5 180.5t519.5 -180.5t199.5 -471.5q0 -178 -76.5 -317.5t-205.5 -211.5v-7h282v-280h-604v354
q118 70 178 174t60 257z" />
    <glyph glyph-name="Iotadieresisgreek" unicode="&#x3aa;" horiz-adv-x="585" 
d="M476 0h-367v1443h367v-1443zM76 1547q-62 0 -104.5 41.5t-42.5 99.5q0 59 42 100t105 41t105.5 -41t42.5 -100q0 -58 -42.5 -99.5t-105.5 -41.5zM509 1547q-63 0 -105 41t-42 100t42 100t105 41t105 -41t42 -100t-42 -100t-105 -41z" />
    <glyph glyph-name="Upsilondieresisgreek" unicode="&#x3ab;" horiz-adv-x="1419" 
d="M893 0h-367v496l-497 947h394l287 -600h7l286 600h387l-497 -947v-496zM493 1547q-62 0 -104.5 41.5t-42.5 99.5q0 59 42 100t105 41t105.5 -41t42.5 -100q0 -58 -42.5 -99.5t-105.5 -41.5zM926 1547q-63 0 -105 41t-42 100t42 100t105 41t105 -41t42 -100t-42 -100
t-105 -41z" />
    <glyph glyph-name="alphatonosgreek" unicode="&#x3ac;" horiz-adv-x="1388" 
d="M621 264q97 0 154.5 79t57.5 213q0 133 -58 213.5t-154 80.5q-93 0 -149 -80t-56 -213q0 -136 55 -214.5t150 -78.5zM512 -15q-216 0 -337 151.5t-121 422.5q0 266 121 417.5t334 151.5q217 0 317 -210h7v195h352v-743q0 -67 22 -94.5t69 -27.5q37 0 57 10l10 -246
q-70 -20 -170 -20q-118 0 -191 39.5t-110 125.5q-9 16 -15 31h-7q-111 -203 -338 -203zM494 1269l83 334h351l-155 -334h-279z" />
    <glyph glyph-name="epsilontonosgreek" unicode="&#x3ad;" horiz-adv-x="1230" 
d="M473 1269l83 334h351l-155 -334h-279zM587 -24q-244 0 -385.5 87t-141.5 238q0 94 54 164t149 99v7q-180 67 -180 237q0 150 142 239.5t379 89.5q252 0 397.5 -102.5t168.5 -295.5h-345q-17 71 -70 104t-147 33q-177 0 -177 -104q0 -47 40.5 -69t137.5 -22h142v-240h-140
q-189 0 -189 -99q0 -51 45 -78t131 -27q195 0 238 152h363q-23 -186 -192.5 -299.5t-419.5 -113.5z" />
    <glyph glyph-name="etatonosgreek" unicode="&#x3ae;" horiz-adv-x="1394" 
d="M1298 -360h-354v993q0 210 -183 210q-86 0 -137.5 -59.5t-51.5 -154.5v-629h-354v741q0 67 -22 96t-69 29q-35 0 -70 -11v246q69 20 175 20q239 0 312 -168q8 -18 17 -49h7q91 228 342 228q187 0 287.5 -110.5t100.5 -309.5v-1072zM495 1269l83 334h351l-155 -334h-279z
" />
    <glyph glyph-name="iotatonosgreek" unicode="&#x3af;" horiz-adv-x="687" 
d="M93 1116h355v-737q0 -117 129 -117q29 0 71 5l10 -252q-65 -14 -165 -14q-214 0 -307 71.5t-93 235.5v808zM121 1269l83 334h351l-155 -334h-279z" />
    <glyph glyph-name="upsilondieresistonosgreek" unicode="&#x3b0;" horiz-adv-x="1198" 
d="M200 1257q-63 0 -105 41t-42 100t42 100t105 41t105 -41t42 -100t-42 -100t-105 -41zM946 1257q-62 0 -104.5 41.5t-42.5 99.5q0 59 42 100t105 41t105 -41t42 -100t-42 -100t-105 -41zM645 1270h-223l23 333h334zM587 -19q-257 0 -380 122t-123 365v645h331v-612
q0 -122 41.5 -175.5t132.5 -53.5q105 0 149.5 76.5t44.5 246.5q0 258 -86 518h340q87 -207 87 -515q0 -300 -136 -458.5t-401 -158.5z" />
    <glyph glyph-name="alphagreek" unicode="&#x3b1;" horiz-adv-x="1388" 
d="M621 264q97 0 154.5 79t57.5 213q0 133 -58 213.5t-154 80.5q-93 0 -149 -80t-56 -213q0 -136 55 -214.5t150 -78.5zM512 -15q-216 0 -337 151.5t-121 422.5q0 266 121 417.5t334 151.5q217 0 317 -210h7v195h352v-743q0 -67 22 -94.5t69 -27.5q37 0 57 10l10 -246
q-70 -20 -170 -20q-118 0 -191 39.5t-110 125.5q-9 16 -15 31h-7q-111 -203 -338 -203z" />
    <glyph glyph-name="betagreek" unicode="&#x3b2;" horiz-adv-x="1286" 
d="M550 673v248h64q91 0 139.5 44.5t48.5 125.5q0 78 -47.5 121.5t-130.5 43.5q-183 0 -183 -238v-456q0 -298 231 -298q91 0 144.5 52t53.5 138q0 105 -63 162t-188 57h-69zM89 950q0 577 543 577q228 0 356.5 -101t128.5 -283q0 -108 -57 -190t-160 -123v-6
q169 -37 250.5 -137.5t81.5 -268.5q0 -198 -119 -315.5t-319 -117.5q-123 0 -211.5 53t-132.5 152h-7v-550h-354v1310z" />
    <glyph glyph-name="gammagreek" unicode="&#x3b3;" horiz-adv-x="1226" 
d="M1157 932q0 -242 -94.5 -463t-307.5 -512v-309h-346v273l-405 1192h367l235 -832h7q105 166 153 315.5t48 334.5q0 100 -12 182h343q12 -89 12 -181z" />
    <glyph glyph-name="deltagreek" unicode="&#x3b4;" horiz-adv-x="1219" 
d="M609 -24q-262 0 -408.5 136.5t-146.5 377.5q0 182 103 309t274 163v7q-97 46 -147.5 116t-50.5 155q0 138 112.5 212.5t317.5 74.5q250 0 398 -65l-10 -242q-161 63 -327 63q-118 0 -118 -75q0 -29 22 -52.5t88 -59.5q131 -76 219.5 -149t137 -146t68.5 -142t20 -151
q0 -242 -150.5 -387t-401.5 -145zM603 220q92 0 143 74.5t51 209.5t-51.5 210t-141.5 75q-94 0 -145.5 -77t-51.5 -210t51.5 -207.5t144.5 -74.5z" />
    <glyph glyph-name="epsilongreek" unicode="&#x3b5;" horiz-adv-x="1230" 
d="M587 -24q-244 0 -385.5 87t-141.5 238q0 94 54 164t149 99v7q-180 67 -180 237q0 150 142 239.5t379 89.5q252 0 397.5 -102.5t168.5 -295.5h-345q-17 71 -70 104t-147 33q-177 0 -177 -104q0 -47 40.5 -69t137.5 -22h142v-240h-140q-189 0 -189 -99q0 -51 45 -78
t131 -27q195 0 238 152h363q-23 -186 -192.5 -299.5t-419.5 -113.5z" />
    <glyph glyph-name="zetagreek" unicode="&#x3b6;" horiz-adv-x="1027" 
d="M879 -370l-266 62q44 69 60 110t16 84q0 63 -41 101.5t-150 75.5q-252 85 -352 198t-100 290q0 172 110 352.5t315 332.5v8h-354v271h877v-225q-309 -200 -451 -364.5t-142 -321.5q0 -50 9.5 -82.5t38 -63.5t78.5 -57t134 -56q199 -73 274.5 -156.5t75.5 -225.5
q0 -154 -132 -333z" />
    <glyph glyph-name="etagreek" unicode="&#x3b7;" horiz-adv-x="1382" 
d="M1298 -360h-354v993q0 210 -183 210q-86 0 -137.5 -59.5t-51.5 -154.5v-629h-354v741q0 67 -22 96t-69 29q-35 0 -70 -11v246q69 20 175 20q239 0 312 -168q8 -18 17 -49h7q91 228 342 228q187 0 287.5 -110.5t100.5 -309.5v-1072z" />
    <glyph glyph-name="thetagreek" unicode="&#x3b8;" horiz-adv-x="1289" 
d="M645 -24q-291 0 -434 195t-143 587q0 378 146.5 573.5t430.5 195.5q283 0 429 -196t146 -574q0 -781 -575 -781zM645 227q113 0 167 98t56 310h-447q2 -212 55.5 -310t168.5 -98zM421 884h446q-4 393 -222 393t-224 -393z" />
    <glyph glyph-name="iotagreek" unicode="&#x3b9;" horiz-adv-x="687" 
d="M93 1113h355v-737q0 -117 129 -117q29 0 71 5l10 -252q-65 -14 -165 -14q-214 0 -307 71.5t-93 235.5v808z" />
    <glyph glyph-name="kappagreek" unicode="&#x3ba;" horiz-adv-x="1271" 
d="M95 0v1113h346v-470h7l250 288q99 112 164.5 151t163.5 39q93 0 152 -19v-247q-26 11 -72 11q-43 0 -71.5 -17t-73.5 -67l-148 -161l403 -621h-368l-275 426l-132 -144v-282h-346z" />
    <glyph glyph-name="lambdagreek" unicode="&#x3bb;" horiz-adv-x="1236" 
d="M9 0l451 1046l-26 69q-34 92 -76 124t-121 32q-59 0 -83 -10v246q68 20 158 20q89 0 148 -16t111 -62t92 -122.5t85 -204.5l265 -750q26 -73 55 -98.5t83 -25.5q40 0 58 10l10 -246q-55 -20 -171 -20q-130 0 -202.5 48t-110.5 165l-137 424h-7l-238 -629h-344z" />
    <glyph glyph-name="mugreek" unicode="&#x3bc;" horiz-adv-x="1365" 
d="M89 -360v1473h350v-631q0 -211 187 -211q91 0 143 59t52 155v628h351v-743q0 -68 18.5 -95t63.5 -27q39 0 57 10l10 -246q-73 -20 -174 -20q-115 0 -182.5 38.5t-108.5 127.5q-2 5 -6.5 16t-6.5 17h-6q-30 -99 -94 -154.5t-150 -55.5q-46 0 -85 16.5t-58 40.5h-7v-398
h-354z" />
    <glyph glyph-name="nugreek" unicode="&#x3bd;" horiz-adv-x="1220" 
d="M382 0l-378 1113h367l235 -832h7q107 172 150 316t43 334q0 99 -11 182h344q13 -88 13 -181q0 -233 -79.5 -434t-284.5 -498h-406z" />
    <glyph glyph-name="xigreek" unicode="&#x3be;" horiz-adv-x="1058" 
d="M894 -370l-266 62q44 68 60 110t16 82q0 66 -42 104.5t-166 81.5q-135 47 -219.5 89t-134.5 89t-69 97t-19 119q0 110 68 185t197 102v7q-105 40 -154 98t-49 148q0 94 57.5 150.5t174.5 82.5v7h-228v271h868v-238l-144 -18q-151 -19 -233.5 -43.5t-116.5 -59.5t-34 -90
q0 -68 57.5 -97.5t178.5 -29.5h212v-256h-231q-268 0 -268 -142q0 -40 19 -67t78.5 -59t177.5 -74q190 -66 266.5 -151t76.5 -226q0 -82 -32 -161t-101 -173z" />
    <glyph glyph-name="omicrongreek" unicode="&#x3bf;" horiz-adv-x="1239" 
d="M620 -24q-265 0 -415.5 154.5t-150.5 426.5q0 268 152 424t414 156q263 0 414.5 -155.5t151.5 -424.5q0 -273 -150 -427t-416 -154zM620 247q96 0 149.5 81.5t53.5 228.5q0 144 -54.5 227t-148.5 83q-95 0 -149.5 -83t-54.5 -227q0 -148 53.5 -229t150.5 -81z" />
    <glyph glyph-name="pigreek" unicode="&#x3c0;" horiz-adv-x="1545" 
d="M289 0v842h-224v271h1407v-271h-236v-475q0 -62 26.5 -90.5t82.5 -28.5q23 0 57 10l10 -246q-58 -20 -180 -20q-185 0 -259 70.5t-74 246.5v533h-272v-842h-338z" />
    <glyph glyph-name="rhogreek" unicode="&#x3c1;" horiz-adv-x="1272" 
d="M638 264q103 0 160.5 78t57.5 220q0 144 -56 224.5t-155 80.5q-104 0 -160 -80.5t-56 -225.5q0 -141 55.5 -219t153.5 -78zM75 -360v900q0 280 155 438.5t420 158.5t417 -154.5t152 -424.5q0 -267 -122.5 -420t-336.5 -153q-110 0 -196 54.5t-128 150.5h-7v-550h-354z
" />
    <glyph glyph-name="sigmafinalgreek" unicode="&#x3c2;" horiz-adv-x="1171" 
d="M894 -370l-266 62q43 67 59.5 108.5t16.5 81.5q0 66 -39.5 104t-149.5 77q-251 88 -356 208t-105 322q0 254 148 399t404 145q233 0 370.5 -122.5t148.5 -336.5h-323q-11 89 -60.5 139t-127.5 50q-98 0 -151.5 -62t-53.5 -176q0 -105 56 -166.5t211 -117.5
q199 -71 275 -155t76 -226q0 -153 -133 -334z" />
    <glyph glyph-name="sigmagreek" unicode="&#x3c3;" horiz-adv-x="1407" 
d="M617 -24q-262 0 -412.5 148t-150.5 404q0 263 164 424t432 161h688v-271h-270v-7q107 -115 107 -315q0 -245 -147.5 -394.5t-410.5 -149.5zM616 241q95 0 151.5 82t56.5 223q0 131 -53 207t-142 76q-99 0 -156 -78.5t-57 -214.5t55.5 -215.5t144.5 -79.5z" />
    <glyph glyph-name="taugreek" unicode="&#x3c4;" horiz-adv-x="1168" 
d="M768 -2q-215 0 -306.5 71.5t-91.5 237.5v535h-325v271h1053v-271h-374v-465q0 -118 131 -118q30 0 70 5l10 -252q-65 -14 -167 -14z" />
    <glyph glyph-name="upsilongreek" unicode="&#x3c5;" horiz-adv-x="1198" 
d="M587 -19q-257 0 -380 122t-123 365v645h331v-612q0 -122 41.5 -175.5t132.5 -53.5q105 0 149.5 76.5t44.5 246.5q0 258 -86 518h340q87 -207 87 -515q0 -300 -136 -458.5t-401 -158.5z" />
    <glyph glyph-name="phigreek" unicode="&#x3c6;" horiz-adv-x="1633" 
d="M657 -360v336q-174 6 -311 74.5t-219 199.5t-82 307t81 308t218.5 201t312.5 74v219h319v-219q130 -4 241.5 -45t194 -114t129.5 -182t47 -242q0 -176 -82 -307t-219 -199.5t-311 -74.5v-336h-319zM968 239q133 8 208.5 90t75.5 228q0 148 -75 230t-209 88v-636zM665 239
v636q-134 -6 -209 -88t-75 -230q0 -147 75.5 -228.5t208.5 -89.5z" />
    <glyph glyph-name="chigreek" unicode="&#x3c7;" horiz-adv-x="1299" 
d="M69 -360l411 727l-204 377q-41 75 -72 98.5t-86 23.5q-36 0 -63 -11v247q74 19 162 19q123 0 195 -43t129 -151l141 -266h6l238 452h348l-429 -749l203 -376q32 -60 58.5 -80t69.5 -20q42 0 66 10l10 -246q-60 -20 -157 -20q-132 0 -196.5 38.5t-120.5 143.5l-137 256h-7
l-216 -430h-349z" />
    <glyph glyph-name="psigreek" unicode="&#x3c8;" horiz-adv-x="1636" 
d="M639 -360v342q-270 1 -412.5 125.5t-142.5 361.5v644h331v-563q0 -162 47.5 -220t176.5 -58v1087h334v-1084q119 0 183.5 82.5t64.5 238.5q0 257 -85 517h340q87 -211 87 -513q0 -299 -152.5 -458.5t-437.5 -159.5v-342h-334z" />
    <glyph glyph-name="omegagreek" unicode="&#x3c9;" horiz-adv-x="1668" 
d="M502 -24q-436 0 -436 552q0 163 39.5 314t113.5 271h348q-161 -299 -161 -596q0 -130 34 -190t107 -60q62 0 95.5 43t33.5 123v363h316v-363q0 -80 32.5 -123t95.5 -43q73 0 107.5 60t34.5 190q0 297 -161 596h348q73 -120 113 -271.5t40 -313.5q0 -552 -436 -552
q-231 0 -328 248h-8q-98 -248 -328 -248z" />
    <glyph glyph-name="iotadieresisgreek" unicode="&#x3ca;" horiz-adv-x="687" 
d="M55 1257q-62 0 -104.5 41.5t-42.5 99.5q0 59 42 100t105 41t105.5 -41t42.5 -100q0 -58 -42.5 -99.5t-105.5 -41.5zM488 1257q-63 0 -105 41t-42 100t42 100t105 41t105 -41t42 -100t-42 -100t-105 -41zM93 1113h355v-737q0 -117 129 -117q29 0 71 5l10 -252
q-65 -14 -165 -14q-214 0 -307 71.5t-93 235.5v808z" />
    <glyph glyph-name="upsilondieresisgreek" unicode="&#x3cb;" horiz-adv-x="1198" 
d="M364 1257q-62 0 -104.5 41.5t-42.5 99.5q0 59 42 100t105 41t105.5 -41t42.5 -100q0 -58 -42.5 -99.5t-105.5 -41.5zM797 1257q-63 0 -105 41t-42 100t42 100t105 41t105 -41t42 -100t-42 -100t-105 -41zM587 -19q-257 0 -380 122t-123 365v645h331v-612
q0 -122 41.5 -175.5t132.5 -53.5q105 0 149.5 76.5t44.5 246.5q0 258 -86 518h340q87 -207 87 -515q0 -300 -136 -458.5t-401 -158.5z" />
    <glyph glyph-name="omicrontonosgreek" unicode="&#x3cc;" horiz-adv-x="1239" 
d="M620 -24q-265 0 -415.5 154.5t-150.5 426.5q0 268 152 424t414 156q263 0 414.5 -155.5t151.5 -424.5q0 -273 -150 -427t-416 -154zM620 247q96 0 149.5 81.5t53.5 228.5q0 144 -54.5 227t-148.5 83q-95 0 -149.5 -83t-54.5 -227q0 -148 53.5 -229t150.5 -81zM492 1269
l83 334h351l-155 -334h-279z" />
    <glyph glyph-name="upsilontonosgreek" unicode="&#x3cd;" horiz-adv-x="1198" 
d="M426 1269l83 334h351l-155 -334h-279zM587 -19q-257 0 -380 122t-123 365v645h331v-612q0 -122 41.5 -175.5t132.5 -53.5q105 0 149.5 76.5t44.5 246.5q0 258 -86 518h340q87 -207 87 -515q0 -300 -136 -458.5t-401 -158.5z" />
    <glyph glyph-name="omegatonosgreek" unicode="&#x3ce;" horiz-adv-x="1668" 
d="M502 -24q-436 0 -436 552q0 163 39.5 314t113.5 271h348q-161 -299 -161 -596q0 -130 34 -190t107 -60q62 0 95.5 43t33.5 123v363h316v-363q0 -80 32.5 -123t95.5 -43q73 0 107.5 60t34.5 190q0 297 -161 596h348q73 -120 113 -271.5t40 -313.5q0 -552 -436 -552
q-231 0 -328 248h-8q-98 -248 -328 -248zM694 1269l83 334h351l-155 -334h-279z" />
    <glyph glyph-name="Iocyrillic" unicode="&#x401;" horiz-adv-x="1217" 
d="M396 1547q-62 0 -104.5 41.5t-42.5 99.5q0 59 42 100t105 41t105.5 -41t42.5 -100q0 -58 -42.5 -99.5t-105.5 -41.5zM829 1547q-63 0 -105 41t-42 100t42 100t105 41t105 -41t42 -100t-42 -100t-105 -41zM1108 296v-296h-989v1443h989v-296h-622v-287h585v-270h-585v-294
h622z" />
    <glyph glyph-name="Djecyrillic" unicode="&#x402;" horiz-adv-x="1778" 
d="M1143 -94q-41 0 -78.5 4t-54 7.5t-21.5 5.5v277q33 -11 113 -11q102 0 160 54t58 153q0 95 -61 149t-167 54q-88 0 -158 -37.5t-103 -99.5v-462h-366v1148h-401v295h1168v-295h-401v-350h8q128 108 339 108q163 0 280 -64.5t173.5 -172.5t56.5 -247q0 -234 -145.5 -375
t-399.5 -141z" />
    <glyph glyph-name="Gjecyrillic" unicode="&#x403;" horiz-adv-x="1150" 
d="M761 1531h-269l232 316h313zM486 0h-367v1443h970v-295h-603v-1148z" />
    <glyph glyph-name="Ecyrillic" unicode="&#x404;" horiz-adv-x="1506" 
d="M1433 509q-26 -246 -204.5 -395.5t-448.5 -149.5q-325 0 -513 202.5t-188 555.5q0 352 188.5 554.5t512.5 202.5q264 0 446 -154.5t205 -396.5h-356q-23 113 -103 179.5t-192 66.5q-125 0 -212.5 -83t-105.5 -227h527v-272h-529q16 -150 104 -236.5t217 -86.5
q113 0 191.5 64t103.5 176h357z" />
    <glyph glyph-name="Dzecyrillic" unicode="&#x405;" horiz-adv-x="1355" 
d="M73 418h349q10 -73 83.5 -119t176.5 -46q106 0 171 42.5t65 108.5q0 60 -50.5 93.5t-174.5 59.5l-189 37q-199 38 -301 143.5t-102 270.5q0 208 160.5 334t413.5 126q268 0 421.5 -120.5t156.5 -325.5h-338q-5 78 -70 123t-166 45q-96 0 -154.5 -40t-58.5 -106
q0 -58 50.5 -93.5t164.5 -58.5l187 -35q213 -41 313 -141t100 -271q0 -215 -165 -342.5t-444 -127.5q-277 0 -436.5 117t-162.5 326z" />
    <glyph glyph-name="Icyrillic" unicode="&#x406;" horiz-adv-x="605" 
d="M486 0h-367v1443h367v-1443z" />
    <glyph glyph-name="Yicyrillic" unicode="&#x407;" horiz-adv-x="605" 
d="M486 0h-367v1443h367v-1443zM86 1547q-62 0 -104.5 41.5t-42.5 99.5q0 59 42 100t105 41t105.5 -41t42.5 -100q0 -58 -42.5 -99.5t-105.5 -41.5zM519 1547q-63 0 -105 41t-42 100t42 100t105 41t105 -41t42 -100t-42 -100t-105 -41z" />
    <glyph glyph-name="Jecyrillic" unicode="&#x408;" horiz-adv-x="1230" 
d="M35 470h353q1 -86 47.5 -136.5t125.5 -50.5q81 0 124 50.5t43 146.5v963h366v-965q0 -242 -139.5 -373.5t-389.5 -131.5q-243 0 -386.5 134t-143.5 363z" />
    <glyph glyph-name="Ljecyrillic" unicode="&#x409;" horiz-adv-x="2264" 
d="M653 586q-7 -140 -34.5 -246t-80.5 -187.5t-139.5 -124t-204.5 -42.5q-82 0 -129 14v319q48 -9 74 -9q50 0 85 22t54 66t28 94t12 121l38 830h1057v-458h241q242 0 392 -135t150 -357q0 -223 -143.5 -358t-376.5 -135h-630v1148h-364zM1413 283h166q116 0 179.5 54
t63.5 157q0 104 -64 158.5t-181 54.5h-164v-424z" />
    <glyph glyph-name="Njecyrillic" unicode="&#x40a;" horiz-adv-x="2249" 
d="M1403 283h188q109 0 167.5 44.5t58.5 126.5q0 79 -59.5 121.5t-168.5 42.5h-186v-335zM486 605v-605h-367v1443h367v-551h550v551h367v-551h240q244 0 393 -121t149 -320q0 -203 -142.5 -327t-376.5 -124h-630v605h-550z" />
    <glyph glyph-name="Tshecyrillic" unicode="&#x40b;" horiz-adv-x="1783" 
d="M1081 599q-85 0 -150 -38t-100 -99v-462h-366v1148h-401v295h1168v-295h-401v-350h8q125 108 326 108q242 0 371 -144.5t129 -385.5v-376h-366v355q0 115 -57 179.5t-161 64.5z" />
    <glyph glyph-name="Kjecyrillic" unicode="&#x40c;" horiz-adv-x="1435" 
d="M1142 1847l-276 -316h-269l232 316h313zM815 763l603 -763h-445l-479 599h-8v-599h-367v1443h367v-583h8l487 583h401z" />
    <glyph glyph-name="Ushortcyrillic" unicode="&#x40e;" horiz-adv-x="1396" 
d="M342 1832h204q2 -70 46.5 -110.5t115.5 -40.5t115.5 40.5t46.5 110.5h204q0 -144 -101 -229.5t-265 -85.5t-265 85.5t-101 229.5zM380 -15q-35 0 -71 3.5t-55 7.5t-22 5v290q45 -9 92 -9q64 0 108.5 17.5t77.5 63.5l-471 1080h388l278 -732h8l260 732h387l-442 -1030
q-47 -110 -95.5 -186t-112.5 -132.5t-145 -83t-185 -26.5z" />
    <glyph glyph-name="Dzhecyrillic" unicode="&#x40f;" horiz-adv-x="1534" 
d="M595 0h-476v1443h367v-1148h562v1148h367v-1443h-475v-285h-345v285z" />
    <glyph glyph-name="Acyrillic" unicode="&#x410;" horiz-adv-x="1497" 
d="M1068 0l-91 317h-472l-92 -317h-374l485 1443h449l485 -1443h-390zM737 1137l-161 -556h329l-160 556h-8z" />
    <glyph glyph-name="Becyrillic" unicode="&#x411;" horiz-adv-x="1333" 
d="M1266 466q0 -211 -143 -338.5t-376 -127.5h-628v1443h1020v-295h-653v-230h246q239 0 386.5 -124t147.5 -328zM486 283h171q112 0 173.5 47t61.5 137t-62 137.5t-175 47.5h-169v-369z" />
    <glyph glyph-name="Vecyrillic" unicode="&#x412;" horiz-adv-x="1372" 
d="M812 0h-693v1443h675q213 0 334.5 -96.5t121.5 -263.5q0 -120 -81 -208t-202 -105v-8q148 -7 249 -105t101 -241q0 -190 -137 -303t-368 -113zM486 1183v-328h193q100 0 156.5 44.5t56.5 122.5q0 76 -51.5 118.5t-143.5 42.5h-211zM486 260h222q114 0 175 48.5t61 139.5
q0 88 -62 136t-176 48h-220v-372z" />
    <glyph glyph-name="Gecyrillic" unicode="&#x413;" horiz-adv-x="1150" 
d="M486 0h-367v1443h970v-295h-603v-1148z" />
    <glyph glyph-name="Decyrillic" unicode="&#x414;" horiz-adv-x="1604" 
d="M590 644q-8 -127 -28.5 -208.5t-64.5 -131.5v-8h531v853h-405zM352 0v-285h-330v581h98q70 54 97.5 137.5t37.5 242.5l47 767h1092v-1147h180v-581h-329v285h-893z" />
    <glyph glyph-name="Iecyrillic" unicode="&#x415;" horiz-adv-x="1217" 
d="M1108 296v-296h-989v1443h989v-296h-622v-287h585v-270h-585v-294h622z" />
    <glyph glyph-name="Zhecyrillic" unicode="&#x416;" horiz-adv-x="2115" 
d="M1549 761l550 -761h-437l-422 599h-8v-599h-354v599h-8l-423 -599h-431l545 756l-522 687h401l430 -583h8v583h354v-583h8l430 583h397z" />
    <glyph glyph-name="Zecyrillic" unicode="&#x417;" horiz-adv-x="1338" 
d="M473 600v274h189q96 0 154.5 46t58.5 122q0 77 -57 121t-157 44t-162 -51t-65 -136h-334q5 212 159 337t410 125q247 0 398.5 -108.5t151.5 -285.5q0 -123 -75.5 -213.5t-198.5 -113.5v-8q147 -16 234.5 -110.5t87.5 -238.5q0 -196 -169.5 -319.5t-437.5 -123.5
q-257 0 -418 127.5t-171 339.5h350q4 -82 70 -130t176 -48q100 0 162 50.5t62 131.5q0 79 -61 123.5t-168 44.5h-189z" />
    <glyph glyph-name="Iicyrillic" unicode="&#x418;" horiz-adv-x="1554" 
d="M1069 0v884h-10l-589 -884h-351v1443h366v-885h10l589 885h351v-1443h-366z" />
    <glyph glyph-name="Iishortcyrillic" unicode="&#x419;" horiz-adv-x="1554" 
d="M420 1832h204q2 -70 46.5 -110.5t115.5 -40.5t115.5 40.5t46.5 110.5h204q0 -144 -101 -229.5t-265 -85.5t-265 85.5t-101 229.5zM1069 0v884h-10l-589 -884h-351v1443h366v-885h10l589 885h351v-1443h-366z" />
    <glyph glyph-name="Kacyrillic" unicode="&#x41a;" horiz-adv-x="1436" 
d="M815 763l603 -763h-445l-479 599h-8v-599h-367v1443h367v-583h8l487 583h401z" />
    <glyph glyph-name="Elcyrillic" unicode="&#x41b;" horiz-adv-x="1509" 
d="M1390 0h-366v1148h-365l-29 -562q-7 -142 -35.5 -249.5t-82 -187.5t-139 -121.5t-202.5 -41.5q-80 0 -129 14v319q48 -9 74 -9q94 0 133 76t46 227l38 830h1057v-1443z" />
    <glyph glyph-name="Emcyrillic" unicode="&#x41c;" horiz-adv-x="1822" 
d="M1703 1443v-1443h-323v901h-7l-357 -886h-210l-356 886h-8v-901h-323v1443h424l364 -927h8l364 927h424z" />
    <glyph glyph-name="Encyrillic" unicode="&#x41d;" horiz-adv-x="1547" 
d="M1427 0h-366v581h-575v-581h-367v1443h367v-566h575v566h366v-1443z" />
    <glyph glyph-name="Ocyrillic" unicode="&#x41e;" horiz-adv-x="1584" 
d="M792 1468q328 0 520 -201t192 -546t-192 -545.5t-520 -200.5q-329 0 -521 200.5t-192 545.5t192.5 546t520.5 201zM792 1170q-154 0 -246.5 -121.5t-92.5 -327.5q0 -205 92 -326.5t247 -121.5q154 0 246.5 121.5t92.5 326.5q0 206 -92.5 327.5t-246.5 121.5z" />
    <glyph glyph-name="Pecyrillic" unicode="&#x41f;" horiz-adv-x="1534" 
d="M1415 0h-366v1148h-563v-1148h-367v1443h1296v-1443z" />
    <glyph glyph-name="Ercyrillic" unicode="&#x420;" horiz-adv-x="1351" 
d="M119 1443h633q233 0 376 -140t143 -371q0 -230 -150 -369.5t-392 -139.5h-243v-423h-367v1443zM486 1162v-463h166q118 0 183 60t65 172t-64.5 171.5t-181.5 59.5h-168z" />
    <glyph glyph-name="Escyrillic" unicode="&#x421;" horiz-adv-x="1506" 
d="M780 -36q-325 0 -513 202.5t-188 555.5q0 352 188.5 554.5t512.5 202.5q264 0 446 -154.5t205 -396.5h-356q-23 113 -103 179.5t-192 66.5q-151 0 -239 -121t-88 -330q0 -212 88 -333t240 -121q113 0 191.5 64t103.5 176h357q-26 -246 -204.5 -395.5t-448.5 -149.5z" />
    <glyph glyph-name="Tecyrillic" unicode="&#x422;" horiz-adv-x="1303" 
d="M823 0h-367v1147h-400v296h1167v-296h-400v-1147z" />
    <glyph glyph-name="Ucyrillic" unicode="&#x423;" horiz-adv-x="1396" 
d="M380 -15q-35 0 -71 3.5t-55 7.5t-22 5v290q45 -9 92 -9q64 0 108.5 17.5t77.5 63.5l-471 1080h388l278 -732h8l260 732h387l-442 -1030q-47 -110 -95.5 -186t-112.5 -132.5t-145 -83t-185 -26.5z" />
    <glyph glyph-name="Efcyrillic" unicode="&#x424;" horiz-adv-x="1856" 
d="M754 406v634q-144 -8 -230.5 -92.5t-86.5 -224.5q0 -141 86.5 -225t230.5 -92zM1419 722q0 141 -86 225.5t-230 92.5v-634q144 8 230 92t86 224zM748 120q-204 7 -356 79t-237 206.5t-85 317.5q0 273 184.5 432t493.5 170v153h360v-153q204 -7 356 -79t237 -206.5
t85 -317.5q0 -273 -184.5 -432t-493.5 -170v-155h-360v155z" />
    <glyph glyph-name="Xacyrillic" unicode="&#x425;" horiz-adv-x="1478" 
d="M52 0l441 723v8l-440 712h428l265 -488h7l267 488h407l-459 -716v-7l455 -720h-412l-280 468h-8l-281 -468h-390z" />
    <glyph glyph-name="Tsecyrillic" unicode="&#x426;" horiz-adv-x="1624" 
d="M1595 -285h-330v285h-1146v1443h367v-1148h563v1148h366v-1148h180v-580z" />
    <glyph glyph-name="Checyrillic" unicode="&#x427;" horiz-adv-x="1496" 
d="M1377 0h-367v587h-8q-134 -109 -348 -109q-240 0 -386.5 146.5t-146.5 390.5v428h367v-389q0 -128 67 -198t190 -70q94 0 163 36.5t102 102.5v518h367v-1443z" />
    <glyph glyph-name="Shacyrillic" unicode="&#x428;" horiz-adv-x="2040" 
d="M119 0v1443h367v-1148h351v1148h366v-1148h351v1148h366v-1443h-1801z" />
    <glyph glyph-name="Shchacyrillic" unicode="&#x429;" horiz-adv-x="2130" 
d="M2100 -285h-329v285h-1652v1443h367v-1148h351v1148h366v-1148h351v1148h366v-1148h180v-580z" />
    <glyph glyph-name="Hardsigncyrillic" unicode="&#x42a;" horiz-adv-x="1620" 
d="M1037 0h-630v1149h-338v294h704v-458h241q243 0 392.5 -135t149.5 -357q0 -223 -143 -358t-376 -135zM773 283h166q116 0 179.5 54t63.5 157q0 104 -64 158.5t-181 54.5h-164v-424z" />
    <glyph glyph-name="Yericyrillic" unicode="&#x42b;" horiz-adv-x="1895" 
d="M1775 0h-367v1443h367v-1443zM119 0v1443h367v-458h241q242 0 391.5 -135t149.5 -357q0 -223 -143 -358t-376 -135h-630zM486 283h166q116 0 179.5 54t63.5 157q0 104 -64.5 158.5t-181.5 54.5h-163v-424z" />
    <glyph glyph-name="Softsigncyrillic" unicode="&#x42c;" horiz-adv-x="1332" 
d="M119 0v1443h367v-458h241q242 0 391.5 -135t149.5 -357q0 -223 -143 -358t-376 -135h-630zM486 283h166q116 0 179.5 54t63.5 157q0 104 -64.5 158.5t-181.5 54.5h-163v-424z" />
    <glyph glyph-name="Ereversedcyrillic" unicode="&#x42d;" horiz-adv-x="1506" 
d="M732 -36q-272 0 -453 150t-206 395h356q25 -112 106 -176t196 -64q127 0 214 86.5t101 236.5h-529v272h527q-16 143 -102.5 226.5t-209.5 83.5q-114 0 -196 -67t-105 -179h-357q15 160 104 285.5t234 195.5t320 70q321 0 507.5 -202.5t186.5 -554.5q0 -353 -186 -555.5
t-508 -202.5z" />
    <glyph glyph-name="IUcyrillic" unicode="&#x42e;" horiz-adv-x="2140" 
d="M1360 -39q-288 0 -471.5 165t-220.5 456h-182v-582h-367v1443h367v-566h184q41 283 224 444t466 161q322 0 511 -204.5t189 -555.5q0 -352 -189 -556.5t-511 -204.5zM1359 1178q-149 0 -239.5 -124t-90.5 -332q0 -209 90 -333t240 -124q148 0 238 124.5t90 332.5t-90 332
t-238 124z" />
    <glyph glyph-name="IAcyrillic" unicode="&#x42f;" horiz-adv-x="1412" 
d="M929 761v405h-213q-102 0 -162 -55t-60 -148q0 -95 59 -148.5t164 -53.5h212zM766 503l-314 -503h-397l361 555q-135 49 -216 157t-81 252q0 217 149.5 348t407.5 131h616v-1443h-363v503h-163z" />
    <glyph glyph-name="acyrillic" unicode="&#x430;" horiz-adv-x="1211" 
d="M556 231q88 0 149.5 47.5t61.5 122.5v77l-205 -14q-75 -5 -115.5 -36t-40.5 -82q0 -53 40.5 -84t109.5 -31zM431 -15q-159 0 -267.5 94.5t-108.5 242.5q0 155 115.5 241t335.5 100l261 16v64q0 67 -44.5 103.5t-120.5 36.5q-71 0 -117 -33.5t-54 -86.5h-319
q7 169 144.5 271.5t362.5 102.5q222 0 358 -103.5t136 -271.5v-762h-344v160h-7q-44 -82 -135.5 -128.5t-195.5 -46.5z" />
    <glyph glyph-name="becyrillic" unicode="&#x431;" horiz-adv-x="1278" 
d="M650 -26q-278 0 -429 169t-151 492q0 190 27.5 337t79 249t129.5 169t174 99t217 36l150 4q71 2 140 10.5t107 16.5t47 13v-267q-5 -5 -35.5 -13t-95 -16.5t-139.5 -10.5l-140 -4q-191 -5 -279.5 -101.5t-114.5 -303.5h8q106 214 372 214q226 0 361.5 -142t135.5 -382
q0 -264 -151.5 -416.5t-412.5 -152.5zM642 244q99 0 154 75t55 212q0 133 -55.5 207.5t-153.5 74.5t-153.5 -74.5t-55.5 -207.5q0 -137 55 -212t154 -75z" />
    <glyph glyph-name="vecyrillic" unicode="&#x432;" horiz-adv-x="1200" 
d="M587 903h-142v-236h132q74 0 114.5 31.5t40.5 87.5t-38 86.5t-107 30.5zM593 481h-148v-271h153q84 0 128.5 35t44.5 102q0 65 -46 99.5t-132 34.5zM99 0v1113h593q182 0 284 -74t102 -205q0 -91 -60 -160t-149 -81v-8q115 -14 187 -86t72 -176q0 -147 -114.5 -235
t-307.5 -88h-607z" />
    <glyph glyph-name="gecyrillic" unicode="&#x433;" horiz-adv-x="964" 
d="M901 851h-448v-851h-354v1113h802v-262z" />
    <glyph glyph-name="decyrillic" unicode="&#x434;" horiz-adv-x="1383" 
d="M847 262v590h-298l-20 -300q-13 -180 -77 -282v-8h395zM341 -285h-321v547h82q57 29 83.5 110t34.5 206l34 535h945v-851h161v-547h-321v285h-698v-285z" />
    <glyph glyph-name="iecyrillic" unicode="&#x435;" horiz-adv-x="1225" 
d="M621 885q-85 0 -143 -57t-65 -146h414q-5 92 -61.5 147.5t-144.5 55.5zM835 350h320q-26 -171 -168.5 -272.5t-358.5 -101.5q-264 0 -414 153t-150 422t149 427.5t403 158.5q249 0 397.5 -151.5t148.5 -405.5v-101h-753v-22q0 -102 62 -165.5t162 -63.5q74 0 128 32.5
t74 89.5z" />
    <glyph glyph-name="zhecyrillic" unicode="&#x436;" horiz-adv-x="1782" 
d="M1382 600l394 -600h-413l-292 451h-8v-451h-348v451h-8l-293 -451h-408l390 593l-375 520h400l286 -428h8v428h348v-428h8l286 428h396z" />
    <glyph glyph-name="zecyrillic" unicode="&#x437;" horiz-adv-x="1167" 
d="M585 -26q-232 0 -370.5 107.5t-154.5 299.5h334q40 -138 191 -138q75 0 117 30t42 83q0 103 -158 103h-148v217h136q140 0 140 98q0 49 -36 76.5t-103 27.5q-144 0 -164 -124h-331q15 181 145.5 283t347.5 102q235 0 360 -84t125 -240q0 -83 -42.5 -143.5t-118.5 -83.5
v-8q97 -27 149 -90.5t52 -153.5q0 -169 -136.5 -265.5t-376.5 -96.5z" />
    <glyph glyph-name="iicyrillic" unicode="&#x438;" horiz-adv-x="1291" 
d="M445 0h-346v1113h346v-638h8l393 638h346v-1113h-346v649h-8z" />
    <glyph glyph-name="iishortcyrillic" unicode="&#x439;" horiz-adv-x="1291" 
d="M278 1607h205q2 -78 46.5 -125t116.5 -47t116 47t46 125h206q0 -153 -101 -246t-267 -93q-167 0 -267.5 92.5t-100.5 246.5zM445 0h-346v1113h346v-638h8l393 638h346v-1113h-346v649h-8z" />
    <glyph glyph-name="kacyrillic" unicode="&#x43a;" horiz-adv-x="1218" 
d="M770 603l443 -603h-421l-331 451h-8v-451h-354v1113h354v-428h8l324 428h397z" />
    <glyph glyph-name="elcyrillic" unicode="&#x43b;" horiz-adv-x="1263" 
d="M552 552q-7 -134 -30.5 -233t-70 -176.5t-123.5 -117t-185 -39.5q-64 0 -109 14v294q35 -8 68 -8q38 0 65 22t42 64t23 91t11 115l26 535h895v-1113h-354v851h-241z" />
    <glyph glyph-name="emcyrillic" unicode="&#x43c;" horiz-adv-x="1622" 
d="M427 0h-328v1113h466l244 -666h8l243 666h463v-1113h-328v724h-8l-256 -649h-240l-256 649h-8v-724z" />
    <glyph glyph-name="encyrillic" unicode="&#x43d;" horiz-adv-x="1280" 
d="M827 0v436h-374v-436h-354v1113h354v-415h374v415h354v-1113h-354z" />
    <glyph glyph-name="ocyrillic" unicode="&#x43e;" horiz-adv-x="1262" 
d="M631 -24q-265 0 -416 153.5t-151 427.5q0 269 153 424.5t414 155.5q262 0 414.5 -154.5t152.5 -425.5q0 -275 -151 -428t-416 -153zM631 237q98 0 153 83.5t55 236.5q0 149 -56 234t-152 85q-97 0 -152.5 -84.5t-55.5 -234.5q0 -153 55 -236.5t153 -83.5z" />
    <glyph glyph-name="pecyrillic" unicode="&#x43f;" horiz-adv-x="1270" 
d="M817 0v851h-364v-851h-354v1113h1072v-1113h-354z" />
    <glyph glyph-name="ercyrillic" unicode="&#x440;" horiz-adv-x="1311" 
d="M797 1128q211 0 328.5 -150t117.5 -421t-116.5 -421.5t-325.5 -150.5q-121 0 -210 54t-131 151h-7v-550h-354v1473h352v-195h7q42 99 131 154.5t208 55.5zM666 264q98 0 156 79.5t58 213.5q0 133 -58.5 212.5t-155.5 79.5t-155.5 -80t-58.5 -213q0 -134 58 -213t156 -79z
" />
    <glyph glyph-name="escyrillic" unicode="&#x441;" horiz-adv-x="1193" 
d="M1137 716h-327q-17 70 -65 110.5t-119 40.5q-98 0 -152.5 -81.5t-54.5 -228.5q0 -149 54.5 -229.5t153.5 -80.5q73 0 120.5 39t64.5 111h325q-18 -197 -155 -309t-360 -112q-259 0 -408.5 155t-149.5 426q0 268 149.5 424t406.5 156q219 0 358 -114.5t159 -306.5z" />
    <glyph glyph-name="tecyrillic" unicode="&#x442;" horiz-adv-x="1088" 
d="M1040 1113v-262h-319v-851h-354v851h-319v262h992z" />
    <glyph glyph-name="ucyrillic" unicode="&#x443;" horiz-adv-x="1214" 
d="M264 -407q-119 0 -129 2v268q5 -1 62 -1q176 0 194 98l5 31l-380 1122h391l205 -845h7l205 845h374l-358 -1111q-71 -222 -203.5 -315.5t-372.5 -93.5z" />
    <glyph glyph-name="efcyrillic" unicode="&#x444;" horiz-adv-x="1703" 
d="M682 242v629q-119 -4 -190 -87t-71 -227q0 -147 70 -229t191 -86zM1282 557q0 146 -70 228t-191 86v-629q119 4 190 87.5t71 227.5zM678 -17q-285 7 -449.5 158.5t-164.5 415.5q0 260 166 413t448 160v330h347v-330q285 -7 450 -158.5t165 -415.5q0 -259 -166.5 -412.5
t-448.5 -160.5v-343h-347v343z" />
    <glyph glyph-name="hacyrillic" unicode="&#x445;" horiz-adv-x="1183" 
d="M585 369h-7l-183 -369h-368l336 554l-336 559h401l170 -359h7l169 359h383l-336 -552l335 -561h-384z" />
    <glyph glyph-name="tsecyrillic" unicode="&#x446;" horiz-adv-x="1355" 
d="M1332 -285h-321v285h-912v1113h354v-851h362v851h354v-851h163v-547z" />
    <glyph glyph-name="checyrillic" unicode="&#x447;" horiz-adv-x="1245" 
d="M1146 0h-354v473h-8q-46 -63 -125.5 -101t-186.5 -38q-175 0 -283 112t-108 303v364h354v-301q0 -89 46 -139t122 -50q129 0 189 99v391h354v-1113z" />
    <glyph glyph-name="shacyrillic" unicode="&#x448;" horiz-adv-x="1792" 
d="M99 0v1113h354v-851h266v851h354v-851h266v851h354v-1113h-1594z" />
    <glyph glyph-name="shchacyrillic" unicode="&#x449;" horiz-adv-x="1869" 
d="M1846 -285h-321v285h-1426v1113h354v-851h266v851h354v-851h266v851h354v-851h153v-547z" />
    <glyph glyph-name="hardsigncyrillic" unicode="&#x44a;" horiz-adv-x="1395" 
d="M904 0h-574v851h-282v262h636v-307h220q200 0 318.5 -109t118.5 -294t-118.5 -294t-318.5 -109zM833 551h-149v-292h149q71 0 113.5 40t42.5 106t-42.5 106t-113.5 40z" />
    <glyph glyph-name="yericyrillic" unicode="&#x44b;" horiz-adv-x="1657" 
d="M1204 0v1113h354v-1113h-354zM602 551h-149v-292h149q71 0 113.5 40t42.5 106t-42.5 106t-113.5 40zM99 0v1113h354v-307h220q200 0 318.5 -109.5t118.5 -293.5t-118.5 -293.5t-318.5 -109.5h-574z" />
    <glyph glyph-name="softsigncyrillic" unicode="&#x44c;" horiz-adv-x="1164" 
d="M602 551h-149v-292h149q71 0 113.5 40t42.5 106t-42.5 106t-113.5 40zM99 0v1113h354v-307h220q200 0 318.5 -109.5t118.5 -293.5t-118.5 -293.5t-318.5 -109.5h-574z" />
    <glyph glyph-name="ereversedcyrillic" unicode="&#x44d;" horiz-adv-x="1193" 
d="M381 396q16 -72 66.5 -110.5t126.5 -38.5q80 0 135 56t65 156h-355v217h351q-13 89 -66.5 140t-129.5 51q-74 0 -124 -40.5t-67 -110.5h-326q20 191 160.5 306t362.5 115q254 0 402 -156t148 -424q0 -271 -148 -426t-404 -155q-225 0 -364.5 112t-157.5 308h325z" />
    <glyph glyph-name="iucyrillic" unicode="&#x44e;" horiz-adv-x="1780" 
d="M1152 -26q-232 0 -378 120.5t-178 341.5h-143v-436h-354v1113h354v-415h146q38 209 184 325t369 116q261 0 413 -154.5t152 -427.5q0 -277 -150.5 -430t-414.5 -153zM1150 244q96 0 150 82t54 231q0 146 -54.5 229t-149.5 83t-149.5 -83t-54.5 -229q0 -149 54 -231
t150 -82z" />
    <glyph glyph-name="iacyrillic" unicode="&#x44f;" horiz-adv-x="1200" 
d="M588 582h169v273h-169q-67 0 -107.5 -38t-40.5 -100q0 -59 41 -97t107 -38zM757 0v343h-90l-231 -343h-390l285 393q-114 37 -178 121.5t-64 204.5q0 180 124.5 287t331.5 107h556v-1113h-344z" />
    <glyph glyph-name="iocyrillic" unicode="&#x451;" horiz-adv-x="1225" 
d="M621 885q-85 0 -143 -57t-65 -146h414q-5 92 -61.5 147.5t-144.5 55.5zM835 350h320q-26 -171 -168.5 -272.5t-358.5 -101.5q-264 0 -414 153t-150 422t149 427.5t403 158.5q249 0 397.5 -151.5t148.5 -405.5v-101h-753v-22q0 -102 62 -165.5t162 -63.5q74 0 128 32.5
t74 89.5zM398 1257q-62 0 -104.5 41.5t-42.5 99.5q0 59 42 100t105 41t105.5 -41t42.5 -100q0 -58 -42.5 -99.5t-105.5 -41.5zM831 1257q-63 0 -105 41t-42 100t42 100t105 41t105 -41t42 -100t-42 -100t-105 -41z" />
    <glyph glyph-name="djecyrillic" unicode="&#x452;" horiz-adv-x="1289" 
d="M452 904h7q44 112 133 170t216 58q185 0 286 -111t101 -309v-740q0 -169 -110 -259.5t-314 -90.5q-57 0 -102 5v253q18 -2 42 -2q69 0 99 25.5t30 82.5v650q0 98 -47.5 152.5t-137.5 54.5q-92 0 -144 -59.5t-52 -156.5v-627h-354v1244h-64v164h64v107h347v-107h217v-164
h-217v-340z" />
    <glyph glyph-name="gjecyrillic" unicode="&#x453;" horiz-adv-x="983" 
d="M636 1269h-275l227 316h312zM901 851h-448v-851h-354v1113h802v-262z" />
    <glyph glyph-name="ecyrillic" unicode="&#x454;" horiz-adv-x="1197" 
d="M816 396h325q-18 -196 -155 -308t-360 -112q-259 0 -409 155t-150 426q0 268 150 424t407 156q219 0 358 -115t159 -306h-327q-17 70 -66 110.5t-122 40.5q-76 0 -130.5 -51t-67.5 -140h349v-217h-353q10 -101 65 -156.5t138 -55.5q74 0 123.5 38.5t65.5 110.5z" />
    <glyph glyph-name="dzecyrillic" unicode="&#x455;" horiz-adv-x="1147" 
d="M79 776q0 166 133.5 263.5t360.5 97.5q225 0 357 -100t134 -271h-324q-2 60 -48.5 95.5t-122.5 35.5q-67 0 -108 -27t-41 -71q0 -67 128 -94l230 -48q167 -35 241.5 -107t74.5 -198q0 -171 -142 -273.5t-375 -102.5q-237 0 -375 100.5t-149 272.5h344q8 -63 57.5 -98
t129.5 -35q74 0 116.5 25.5t42.5 70.5q0 35 -28.5 56t-94.5 35l-209 44q-163 34 -247.5 118t-84.5 211z" />
    <glyph glyph-name="icyrillic" unicode="&#x456;" horiz-adv-x="557" 
d="M101 0v1113h355v-1113h-355zM278 1205q-76 0 -129 50t-53 125q0 74 53 124.5t129 50.5t129.5 -50.5t53.5 -124.5q0 -75 -53 -125t-130 -50z" />
    <glyph glyph-name="yicyrillic" unicode="&#x457;" horiz-adv-x="552" 
d="M90 1240q-63 0 -105 43t-42 105q0 63 42 106t105 43t105 -43t42 -106q0 -62 -42 -105t-105 -43zM462 1240q-62 0 -104.5 43.5t-42.5 104.5q0 63 42 106t105 43t105 -43t42 -106q0 -62 -42 -105t-105 -43zM91 0v1113h355v-1113h-355z" />
    <glyph glyph-name="jecyrillic" unicode="&#x458;" horiz-adv-x="561" 
d="M457 1113v-1140q0 -169 -109.5 -260t-313.5 -91q-55 0 -103 5v253q20 -2 42 -2q69 0 99 25t30 83v1127h355zM279 1205q-76 0 -129 50t-53 125q0 74 53 124.5t129 50.5t129.5 -50.5t53.5 -124.5q0 -75 -53 -125t-130 -50z" />
    <glyph glyph-name="ljecyrillic" unicode="&#x459;" horiz-adv-x="1877" 
d="M552 552q-7 -134 -30.5 -233t-70 -176.5t-123.5 -117t-185 -39.5q-64 0 -109 14v294q35 -8 68 -8q38 0 65 22t42 64t23 91t11 115l26 535h896v-307h220q200 0 318.5 -109t118.5 -294t-118.5 -294t-318.5 -109h-574v851h-242zM1314 551h-149v-292h149q71 0 113.5 40
t42.5 106t-42.5 106t-113.5 40z" />
    <glyph glyph-name="njecyrillic" unicode="&#x45a;" horiz-adv-x="1880" 
d="M1341 493h-172v-238h172q62 0 100 34t38 85t-38 85t-100 34zM815 0v481h-362v-481h-354v1113h354v-377h362v377h354v-369h222q199 0 317 -101t118 -272q0 -170 -118 -270.5t-317 -100.5h-576z" />
    <glyph glyph-name="tshecyrillic" unicode="&#x45b;" horiz-adv-x="1289" 
d="M452 904h7q44 112 133 170t216 58q185 0 286 -111t101 -309v-712h-355v636q0 98 -47.5 152.5t-137.5 54.5q-92 0 -144 -59.5t-52 -156.5v-627h-354v1244h-64v164h64v107h347v-107h217v-164h-217v-340z" />
    <glyph glyph-name="kjecyrillic" unicode="&#x45c;" horiz-adv-x="1218" 
d="M1045 1585l-264 -316h-275l227 316h312zM770 603l443 -603h-421l-331 451h-8v-451h-354v1113h354v-428h8l324 428h397z" />
    <glyph glyph-name="ushortcyrillic" unicode="&#x45e;" horiz-adv-x="1214" 
d="M247 1607h205q2 -78 46.5 -125t116.5 -47t116 47t46 125h206q0 -153 -101 -246t-267 -93q-167 0 -267.5 92.5t-100.5 246.5zM264 -407q-119 0 -129 2v268q5 -1 62 -1q176 0 194 98l5 31l-380 1122h391l205 -845h7l205 845h374l-358 -1111q-71 -222 -203.5 -315.5
t-372.5 -93.5z" />
    <glyph glyph-name="dzhecyrillic" unicode="&#x45f;" horiz-adv-x="1278" 
d="M1179 0h-380v-285h-321v285h-379v1113h354v-851h372v851h354v-1113z" />
    <glyph glyph-name="Geupturncyrillic" unicode="&#x490;" horiz-adv-x="1150" 
d="M486 1148v-1148h-367v1443h625v285h345v-580h-603z" />
    <glyph glyph-name="geupturncyrillic" unicode="&#x491;" horiz-adv-x="964" 
d="M901 851h-448v-851h-354v1113h481v285h321v-547z" />
    <glyph glyph-name="baht" unicode="&#xe3f;" horiz-adv-x="1372" 
d="M716 631v-371q188 13 188 188q0 168 -188 183zM452 259h120v373h-120v-373zM452 1184v-329h120v329h-120zM716 1181v-321q72 12 111 53.5t39 105.5q0 67 -39 109.5t-111 52.5zM942 776v-19q142 -8 238.5 -105.5t96.5 -235.5q0 -190 -136.5 -303t-367.5 -113h-57v-135
h-144v135h-477v1443h477v141h144v-141h37q215 0 336 -96t121 -264q0 -116 -76.5 -203.5t-191.5 -103.5z" />
    <glyph glyph-name="Aringbelow" unicode="&#x1e00;" horiz-adv-x="1477" 
d="M1058 0l-91 317h-472l-92 -317h-374l485 1443h449l485 -1443h-390zM727 1137l-161 -556h329l-160 556h-8zM738 -592q-95 0 -164.5 67t-69.5 160t69 160t165 67q95 0 163.5 -67t68.5 -160t-68.5 -160t-163.5 -67zM738 -457q38 0 66 27.5t28 64.5q0 38 -28 65.5t-66 27.5
t-66.5 -27.5t-28.5 -65.5q0 -37 28.5 -64.5t66.5 -27.5z" />
    <glyph glyph-name="aringbelow" unicode="&#x1e01;" horiz-adv-x="1191" 
d="M546 231q88 0 149.5 47.5t61.5 122.5v77l-205 -14q-75 -5 -115.5 -36t-40.5 -82q0 -53 40.5 -84t109.5 -31zM421 -15q-159 0 -267.5 94.5t-108.5 242.5q0 155 115.5 241t335.5 100l261 16v64q0 67 -44.5 103.5t-120.5 36.5q-71 0 -117 -33.5t-54 -86.5h-319
q7 169 144.5 271.5t362.5 102.5q222 0 358 -103.5t136 -271.5v-762h-344v160h-7q-44 -82 -135.5 -128.5t-195.5 -46.5zM595 -592q-95 0 -164.5 67t-69.5 160t69 160t165 67q95 0 163.5 -67t68.5 -160t-68.5 -160t-163.5 -67zM595 -457q38 0 66 27.5t28 64.5q0 38 -28 65.5
t-66 27.5t-66.5 -27.5t-28.5 -65.5q0 -37 28.5 -64.5t66.5 -27.5z" />
    <glyph glyph-name="Bdotaccent" unicode="&#x1e02;" horiz-adv-x="1352" 
d="M660 1548q-69 0 -116.5 47.5t-47.5 115.5t47.5 115.5t116.5 47.5t116.5 -47.5t47.5 -115.5t-47.5 -115.5t-116.5 -47.5zM802 0h-693v1443h675q213 0 334.5 -96.5t121.5 -263.5q0 -120 -81 -208t-202 -105v-8q148 -7 249 -105t101 -241q0 -190 -137 -303t-368 -113z
M476 1183v-328h193q100 0 156.5 44.5t56.5 122.5q0 76 -51.5 118.5t-143.5 42.5h-211zM476 260h222q114 0 175 48.5t61 139.5q0 88 -62 136t-176 48h-220v-372z" />
    <glyph glyph-name="bdotaccent" unicode="&#x1e03;" horiz-adv-x="1293" 
d="M272 1620q-69 0 -116.5 47.5t-47.5 115.5t47.5 115.5t116.5 47.5t116.5 -47.5t47.5 -115.5t-47.5 -115.5t-116.5 -47.5zM797 -15q-121 0 -210.5 54t-132.5 152h-7v-191h-352v1515h354v-597h8q43 100 131 155t206 55q211 0 328 -150t117 -421t-116.5 -421.5t-325.5 -150.5
zM663 849q-97 0 -156 -80t-59 -213t58.5 -212.5t156.5 -79.5t156 79.5t58 213.5q0 133 -58.5 212.5t-155.5 79.5z" />
    <glyph glyph-name="Bdotbelow" unicode="&#x1e04;" horiz-adv-x="1352" 
d="M660 -492q-69 0 -116.5 47.5t-47.5 115.5t47.5 115.5t116.5 47.5t116.5 -47.5t47.5 -115.5t-47.5 -115.5t-116.5 -47.5zM802 0h-693v1443h675q213 0 334.5 -96.5t121.5 -263.5q0 -120 -81 -208t-202 -105v-8q148 -7 249 -105t101 -241q0 -190 -137 -303t-368 -113z
M476 1183v-328h193q100 0 156.5 44.5t56.5 122.5q0 76 -51.5 118.5t-143.5 42.5h-211zM476 260h222q114 0 175 48.5t61 139.5q0 88 -62 136t-176 48h-220v-372z" />
    <glyph glyph-name="bdotbelow" unicode="&#x1e05;" horiz-adv-x="1293" 
d="M654 -492q-69 0 -116.5 47.5t-47.5 115.5t47.5 115.5t116.5 47.5t116.5 -47.5t47.5 -115.5t-47.5 -115.5t-116.5 -47.5zM797 -15q-121 0 -210.5 54t-132.5 152h-7v-191h-352v1515h354v-597h8q43 100 131 155t206 55q211 0 328 -150t117 -421t-116.5 -421.5t-325.5 -150.5
zM663 849q-97 0 -156 -80t-59 -213t58.5 -212.5t156.5 -79.5t156 79.5t58 213.5q0 133 -58.5 212.5t-155.5 79.5z" />
    <glyph glyph-name="Blinebelow" unicode="&#x1e06;" horiz-adv-x="1352" 
d="M802 0h-693v1443h675q213 0 334.5 -96.5t121.5 -263.5q0 -120 -81 -208t-202 -105v-8q148 -7 249 -105t101 -241q0 -190 -137 -303t-368 -113zM476 1183v-328h193q100 0 156.5 44.5t56.5 122.5q0 76 -51.5 118.5t-143.5 42.5h-211zM476 260h222q114 0 175 48.5t61 139.5
q0 88 -62 136t-176 48h-220v-372zM1021 -235v-163h-722v163h722z" />
    <glyph glyph-name="blinebelow" unicode="&#x1e07;" horiz-adv-x="1293" 
d="M1015 -235v-163h-722v163h722zM797 -15q-121 0 -210.5 54t-132.5 152h-7v-191h-352v1515h354v-597h8q43 100 131 155t206 55q211 0 328 -150t117 -421t-116.5 -421.5t-325.5 -150.5zM663 849q-97 0 -156 -80t-59 -213t58.5 -212.5t156.5 -79.5t156 79.5t58 213.5
q0 133 -58.5 212.5t-155.5 79.5z" />
    <glyph glyph-name="Ccedillaacute" unicode="&#x1e08;" horiz-adv-x="1488" 
d="M1152 1870l-276 -316h-269l232 316h313zM1072 544h353q-12 -238 -170 -391t-409 -175l-38 -80q80 0 126.5 -43.5t46.5 -119.5q0 -92 -65 -141.5t-187 -49.5q-91 0 -137 15v131q36 -12 105 -12q100 0 100 45q0 28 -25 39.5t-87 11.5h-56v114l46 92q-284 29 -445 223
t-161 519q0 351 188 548.5t513 197.5q181 0 328 -72.5t233.5 -204t91.5 -299.5h-353q-13 127 -96 204.5t-204 77.5q-151 0 -239 -121t-88 -330q0 -212 88 -333t240 -121q121 0 202.5 74t98.5 201z" />
    <glyph glyph-name="ccedillaacute" unicode="&#x1e09;" horiz-adv-x="1185" 
d="M990 1585l-264 -316h-275l227 316h312zM813 429h326q-7 -192 -127 -311t-322 -139l-38 -81q80 0 126.5 -43.5t46.5 -119.5q0 -92 -65 -141.5t-187 -49.5q-90 0 -137 15v131q36 -12 105 -12q100 0 100 45q0 28 -25 39.5t-87 11.5h-56v114l47 94q-219 29 -342.5 180
t-123.5 395q0 268 151 424t410 156q232 0 373.5 -126t149.5 -334h-325q-9 87 -60.5 138.5t-131.5 51.5q-98 0 -153.5 -81.5t-55.5 -228.5q0 -149 55 -229.5t154 -80.5q81 0 131.5 47.5t60.5 134.5z" />
    <glyph glyph-name="Ddotaccent" unicode="&#x1e0a;" horiz-adv-x="1459" 
d="M694 1548q-69 0 -116.5 47.5t-47.5 115.5t47.5 115.5t116.5 47.5t116.5 -47.5t47.5 -115.5t-47.5 -115.5t-116.5 -47.5zM109 1443h589q328 0 509.5 -185t181.5 -528q0 -345 -182 -537.5t-509 -192.5h-589v1443zM476 1147v-851h173q180 0 273.5 109t93.5 324
q0 202 -96 310t-271 108h-173z" />
    <glyph glyph-name="ddotaccent" unicode="&#x1e0b;" horiz-adv-x="1289" 
d="M1031 1620q-69 0 -116.5 47.5t-47.5 115.5t47.5 115.5t116.5 47.5t116.5 -47.5t47.5 -115.5t-47.5 -115.5t-116.5 -47.5zM499 -15q-207 0 -326 153t-119 421q0 265 120 417t328 152q119 0 207.5 -57.5t126.5 -152.5h7v597h355v-1515h-353v191h-6q-35 -91 -127 -148.5
t-213 -57.5zM631 849q-99 0 -157 -78.5t-58 -213.5q0 -136 57.5 -214.5t157.5 -78.5q99 0 156.5 78t57.5 214q0 135 -57.5 214t-156.5 79z" />
    <glyph glyph-name="Ddotbelow" unicode="&#x1e0c;" horiz-adv-x="1459" 
d="M694 -492q-69 0 -116.5 47.5t-47.5 115.5t47.5 115.5t116.5 47.5t116.5 -47.5t47.5 -115.5t-47.5 -115.5t-116.5 -47.5zM109 1443h589q328 0 509.5 -185t181.5 -528q0 -345 -182 -537.5t-509 -192.5h-589v1443zM476 1147v-851h173q180 0 273.5 109t93.5 324
q0 202 -96 310t-271 108h-173z" />
    <glyph glyph-name="ddotbelow" unicode="&#x1e0d;" horiz-adv-x="1289" 
d="M631 -492q-69 0 -116.5 47.5t-47.5 115.5t47.5 115.5t116.5 47.5t116.5 -47.5t47.5 -115.5t-47.5 -115.5t-116.5 -47.5zM499 -15q-207 0 -326 153t-119 421q0 265 120 417t328 152q119 0 207.5 -57.5t126.5 -152.5h7v597h355v-1515h-353v191h-6q-35 -91 -127 -148.5
t-213 -57.5zM631 849q-99 0 -157 -78.5t-58 -213.5q0 -136 57.5 -214.5t157.5 -78.5q99 0 156.5 78t57.5 214q0 135 -57.5 214t-156.5 79z" />
    <glyph glyph-name="Dlinebelow" unicode="&#x1e0e;" horiz-adv-x="1459" 
d="M1055 -235v-163h-722v163h722zM109 1443h589q328 0 509.5 -185t181.5 -528q0 -345 -182 -537.5t-509 -192.5h-589v1443zM476 1147v-851h173q180 0 273.5 109t93.5 324q0 202 -96 310t-271 108h-173z" />
    <glyph glyph-name="dlinebelow" unicode="&#x1e0f;" horiz-adv-x="1289" 
d="M992 -235v-163h-722v163h722zM499 -15q-207 0 -326 153t-119 421q0 265 120 417t328 152q119 0 207.5 -57.5t126.5 -152.5h7v597h355v-1515h-353v191h-6q-35 -91 -127 -148.5t-213 -57.5zM631 849q-99 0 -157 -78.5t-58 -213.5q0 -136 57.5 -214.5t157.5 -78.5
q99 0 156.5 78t57.5 214q0 135 -57.5 214t-156.5 79z" />
    <glyph glyph-name="Dcommaaccent" unicode="&#x1e10;" horiz-adv-x="1459" 
d="M668 -477h-265l138 333h310zM109 1443h589q328 0 509.5 -185t181.5 -528q0 -345 -182 -537.5t-509 -192.5h-589v1443zM476 1147v-851h173q180 0 273.5 109t93.5 324q0 202 -96 310t-271 108h-173z" />
    <glyph glyph-name="dcommaaccent" unicode="&#x1e11;" horiz-adv-x="1289" 
d="M605 -477h-265l138 333h310zM499 -15q-207 0 -326 153t-119 421q0 265 120 417t328 152q119 0 207.5 -57.5t126.5 -152.5h7v597h355v-1515h-353v191h-6q-35 -91 -127 -148.5t-213 -57.5zM631 849q-99 0 -157 -78.5t-58 -213.5q0 -136 57.5 -214.5t157.5 -78.5
q99 0 156.5 78t57.5 214q0 135 -57.5 214t-156.5 79z" />
    <glyph glyph-name="Dcircumflexbelow" unicode="&#x1e12;" horiz-adv-x="1459" 
d="M109 1443h589q328 0 509.5 -185t181.5 -528q0 -345 -182 -537.5t-509 -192.5h-589v1443zM476 1147v-851h173q180 0 273.5 109t93.5 324q0 202 -96 310t-271 108h-173zM557 -156h274l263 -328h-250l-147 194h-6l-147 -194h-250z" />
    <glyph glyph-name="dcircumflexbelow" unicode="&#x1e13;" horiz-adv-x="1289" 
d="M499 -15q-207 0 -326 153t-119 421q0 265 120 417t328 152q119 0 207.5 -57.5t126.5 -152.5h7v597h355v-1515h-353v191h-6q-35 -91 -127 -148.5t-213 -57.5zM631 849q-99 0 -157 -78.5t-58 -213.5q0 -136 57.5 -214.5t157.5 -78.5q99 0 156.5 78t57.5 214
q0 135 -57.5 214t-156.5 79zM494 -156h274l263 -328h-250l-147 194h-6l-147 -194h-250z" />
    <glyph glyph-name="Emacrongrave" unicode="&#x1e14;" horiz-adv-x="1196" 
d="M242 1614v163h722v-163h-722zM738 1907h-250l-238 263h290zM1098 296v-296h-989v1443h989v-296h-622v-287h585v-270h-585v-294h622z" />
    <glyph glyph-name="emacrongrave" unicode="&#x1e15;" horiz-adv-x="1205" 
d="M611 885q-85 0 -143 -57t-65 -146h414q-5 92 -61.5 147.5t-144.5 55.5zM825 350h320q-26 -171 -168.5 -272.5t-358.5 -101.5q-264 0 -414 153t-150 422t149 427.5t403 158.5q249 0 397.5 -151.5t148.5 -405.5v-101h-753v-22q0 -102 62 -165.5t162 -63.5q74 0 128 32.5
t74 89.5zM727 1632h-235l-225 280h290zM949 1449v-163h-688v163h688z" />
    <glyph glyph-name="Emacronacute" unicode="&#x1e16;" horiz-adv-x="1196" 
d="M964 1614h-722v163h722v-163zM468 1907l198 263h290l-238 -263h-250zM1098 296v-296h-989v1443h989v-296h-622v-287h585v-270h-585v-294h622z" />
    <glyph glyph-name="emacronacute" unicode="&#x1e17;" horiz-adv-x="1205" 
d="M611 885q-85 0 -143 -57t-65 -146h414q-5 92 -61.5 147.5t-144.5 55.5zM825 350h320q-26 -171 -168.5 -272.5t-358.5 -101.5q-264 0 -414 153t-150 422t149 427.5t403 158.5q249 0 397.5 -151.5t148.5 -405.5v-101h-753v-22q0 -102 62 -165.5t162 -63.5q74 0 128 32.5
t74 89.5zM479 1637l192 275h291l-229 -275h-254zM949 1449v-163h-688v163h688z" />
    <glyph glyph-name="Ecircumflexbelow" unicode="&#x1e18;" horiz-adv-x="1196" 
d="M1098 296v-296h-989v1443h989v-296h-622v-287h585v-270h-585v-294h622zM466 -156h274l263 -328h-250l-147 194h-6l-147 -194h-250z" />
    <glyph glyph-name="ecircumflexbelow" unicode="&#x1e19;" horiz-adv-x="1205" 
d="M611 885q-85 0 -143 -57t-65 -146h414q-5 92 -61.5 147.5t-144.5 55.5zM825 350h320q-26 -171 -168.5 -272.5t-358.5 -101.5q-264 0 -414 153t-150 422t149 427.5t403 158.5q249 0 397.5 -151.5t148.5 -405.5v-101h-753v-22q0 -102 62 -165.5t162 -63.5q74 0 128 32.5
t74 89.5zM470 -156h274l263 -328h-250l-147 194h-6l-147 -194h-250z" />
    <glyph glyph-name="Etildebelow" unicode="&#x1e1a;" horiz-adv-x="1196" 
d="M750 -447q-48 0 -90.5 20t-67.5 43.5t-53.5 43.5t-51.5 20q-33 0 -50 -30.5t-19 -79.5h-181q0 131 67 207t167 76q49 0 92 -20t68.5 -43.5t53.5 -43.5t51 -20q64 0 67 114h181q0 -130 -67.5 -208.5t-166.5 -78.5zM1098 296v-296h-989v1443h989v-296h-622v-287h585v-270
h-585v-294h622z" />
    <glyph glyph-name="etildebelow" unicode="&#x1e1b;" horiz-adv-x="1205" 
d="M754 -447q-48 0 -90.5 20t-67.5 43.5t-53.5 43.5t-51.5 20q-33 0 -50 -30.5t-19 -79.5h-181q0 131 67 207t167 76q49 0 92 -20t68.5 -43.5t53.5 -43.5t51 -20q64 0 67 114h181q0 -130 -67.5 -208.5t-166.5 -78.5zM611 885q-85 0 -143 -57t-65 -146h414q-5 92 -61.5 147.5
t-144.5 55.5zM825 350h320q-26 -171 -168.5 -272.5t-358.5 -101.5q-264 0 -414 153t-150 422t149 427.5t403 158.5q249 0 397.5 -151.5t148.5 -405.5v-101h-753v-22q0 -102 62 -165.5t162 -63.5q74 0 128 32.5t74 89.5z" />
    <glyph glyph-name="Ecedillabreve" unicode="&#x1e1c;" horiz-adv-x="1196" 
d="M770 1865h208q-4 -140 -104 -233t-271 -93t-271 93t-104 233h208q3 -71 47.5 -115t119.5 -44t119.5 44t47.5 115zM1098 1147h-622v-287h585v-270h-585v-294h622v-296h-390l-48 -102q80 0 126.5 -43.5t46.5 -119.5q0 -92 -65 -141.5t-187 -49.5q-91 0 -137 15v131
q36 -12 105 -12q100 0 100 45q0 28 -25 39.5t-87 11.5h-56v114l56 112h-428v1443h989v-296z" />
    <glyph glyph-name="ecedillabreve" unicode="&#x1e1d;" horiz-adv-x="1205" 
d="M773 1581h210q-4 -142 -105 -235.5t-273 -93.5t-273 93.5t-105 235.5h210q2 -71 47 -116t121 -45t121 45t47 116zM403 682h414q-5 92 -61.5 147.5t-144.5 55.5q-85 0 -143 -57t-65 -146zM1152 479h-753v-22q0 -102 62 -165.5t162 -63.5q74 0 128 32.5t74 89.5h320
q-23 -153 -141 -251.5t-301 -118.5l-39 -82q80 0 126.5 -43.5t46.5 -119.5q0 -92 -65 -141.5t-187 -49.5q-91 0 -137 15v131q36 -12 105 -12q100 0 100 45q0 28 -25 39.5t-87 11.5h-56v114l46 93q-225 25 -351 174.5t-126 395.5q0 269 149 427.5t403 158.5
q249 0 397.5 -151.5t148.5 -405.5v-101z" />
    <glyph glyph-name="Fdotaccent" unicode="&#x1e1e;" horiz-adv-x="1144" 
d="M581 1548q-69 0 -116.5 47.5t-47.5 115.5t47.5 115.5t116.5 47.5t116.5 -47.5t47.5 -115.5t-47.5 -115.5t-116.5 -47.5zM476 0h-367v1443h982v-296h-615v-328h559v-281h-559v-538z" />
    <glyph glyph-name="fdotaccent" unicode="&#x1e1f;" horiz-adv-x="789" 
d="M474 1615q-69 0 -116.5 47.5t-47.5 115.5t47.5 115.5t116.5 47.5t116.5 -47.5t47.5 -115.5t-47.5 -115.5t-116.5 -47.5zM178 0v851h-149v262h149v97q0 164 90 234.5t302 70.5q74 0 156 -11v-234q-37 7 -81 7q-64 0 -93 -22.5t-29 -71.5v-70h204v-262h-195v-851h-354z" />
    <glyph glyph-name="Gmacron" unicode="&#x1e20;" horiz-adv-x="1510" 
d="M1437 610q0 -296 -174 -465.5t-481 -169.5q-335 0 -524 197.5t-189 551.5q0 350 188 547t516 197q261 0 441 -140t208 -361h-363q-27 96 -103 151t-182 55q-156 0 -243.5 -117t-87.5 -327q0 -213 94 -336t253 -123q124 0 204 67t88 176l1 22h-264v252h618v-177z
M1114 1777v-163h-722v163h722z" />
    <glyph glyph-name="gmacron" unicode="&#x1e21;" horiz-adv-x="1287" 
d="M981 1449v-163h-688v163h688zM630 274q100 0 157.5 74.5t57.5 208.5t-58 213t-157 79t-156.5 -78.5t-57.5 -212.5q0 -135 57 -209.5t157 -74.5zM624 -413q-236 0 -384 92.5t-155 247.5h344q11 -47 67.5 -75.5t133.5 -28.5q97 0 155 46.5t58 126.5v211h-7
q-34 -89 -125.5 -142.5t-213.5 -53.5q-201 0 -322 146.5t-121 402.5q0 265 120 416.5t329 151.5q118 0 207.5 -57.5t128.5 -152.5h6v195h353v-1091q0 -198 -157 -316.5t-417 -118.5z" />
    <glyph glyph-name="Hdotaccent" unicode="&#x1e22;" horiz-adv-x="1527" 
d="M1417 0h-366v581h-575v-581h-367v1443h367v-566h575v566h366v-1443zM763 1548q-69 0 -116.5 47.5t-47.5 115.5t47.5 115.5t116.5 47.5t116.5 -47.5t47.5 -115.5t-47.5 -115.5t-116.5 -47.5z" />
    <glyph glyph-name="hdotaccent" unicode="&#x1e23;" horiz-adv-x="1269" 
d="M95 0v1515h347v-611h7q44 112 133 170t216 58q185 0 286 -111t101 -309v-712h-355v636q0 98 -47.5 152.5t-137.5 54.5q-92 0 -144 -59.5t-52 -156.5v-627h-354zM271 1620q-69 0 -116.5 47.5t-47.5 115.5t47.5 115.5t116.5 47.5t116.5 -47.5t47.5 -115.5t-47.5 -115.5
t-116.5 -47.5z" />
    <glyph glyph-name="Hdotbelow" unicode="&#x1e24;" horiz-adv-x="1527" 
d="M1417 0h-366v581h-575v-581h-367v1443h367v-566h575v566h366v-1443zM763 -492q-69 0 -116.5 47.5t-47.5 115.5t47.5 115.5t116.5 47.5t116.5 -47.5t47.5 -115.5t-47.5 -115.5t-116.5 -47.5z" />
    <glyph glyph-name="hdotbelow" unicode="&#x1e25;" horiz-adv-x="1269" 
d="M95 0v1515h347v-611h7q44 112 133 170t216 58q185 0 286 -111t101 -309v-712h-355v636q0 98 -47.5 152.5t-137.5 54.5q-92 0 -144 -59.5t-52 -156.5v-627h-354zM637 -492q-69 0 -116.5 47.5t-47.5 115.5t47.5 115.5t116.5 47.5t116.5 -47.5t47.5 -115.5t-47.5 -115.5
t-116.5 -47.5z" />
    <glyph glyph-name="Hdieresis" unicode="&#x1e26;" horiz-adv-x="1527" 
d="M1417 0h-366v581h-575v-581h-367v1443h367v-566h575v566h366v-1443zM546 1547q-62 0 -104.5 41.5t-42.5 99.5q0 59 42 100t105 41t105.5 -41t42.5 -100q0 -58 -42.5 -99.5t-105.5 -41.5zM979 1547q-63 0 -105 41t-42 100t42 100t105 41t105 -41t42 -100t-42 -100
t-105 -41z" />
    <glyph glyph-name="hdieresis" unicode="&#x1e27;" horiz-adv-x="1269" 
d="M95 0v1515h347v-611h7q44 112 133 170t216 58q185 0 286 -111t101 -309v-712h-355v636q0 98 -47.5 152.5t-137.5 54.5q-92 0 -144 -59.5t-52 -156.5v-627h-354zM54 1619q-62 0 -104.5 41.5t-42.5 99.5q0 59 42 100t105 41t105.5 -41t42.5 -100q0 -58 -42.5 -99.5
t-105.5 -41.5zM487 1619q-63 0 -105 41t-42 100t42 100t105 41t105 -41t42 -100t-42 -100t-105 -41z" />
    <glyph glyph-name="Hcedilla" unicode="&#x1e28;" horiz-adv-x="1527" 
d="M1051 1443h366v-1443h-366v581h-575v-581h-156l-48 -102q80 0 126.5 -43.5t46.5 -119.5q0 -92 -65 -141.5t-187 -49.5q-91 0 -137 15v131q36 -12 105 -12q100 0 100 45q0 28 -25 39.5t-87 11.5h-56v114l56 112h-40v1443h367v-566h575v566z" />
    <glyph glyph-name="hcedilla" unicode="&#x1e29;" horiz-adv-x="1269" 
d="M442 904h7q44 112 133 170t216 58q185 0 286 -111t101 -309v-712h-355v636q0 98 -47.5 152.5t-137.5 54.5q-92 0 -144 -59.5t-52 -156.5v-627h-133l-48 -102q80 0 126.5 -43.5t46.5 -119.5q0 -92 -65 -141.5t-187 -49.5q-91 0 -137 15v131q36 -12 105 -12q100 0 100 45
q0 28 -25 39.5t-87 11.5h-56v114l56 112h-50v1515h347v-611z" />
    <glyph glyph-name="Hbrevebelow" unicode="&#x1e2a;" horiz-adv-x="1527" 
d="M388 -165h208q3 -71 47.5 -115t119.5 -44t119.5 44t47.5 115h208q-4 -140 -104 -233t-271 -93t-271 93t-104 233zM1417 0h-366v581h-575v-581h-367v1443h367v-566h575v566h366v-1443z" />
    <glyph glyph-name="hbrevebelow" unicode="&#x1e2b;" horiz-adv-x="1269" 
d="M262 -165h208q3 -71 47.5 -115t119.5 -44t119.5 44t47.5 115h208q-4 -140 -104 -233t-271 -93t-271 93t-104 233zM95 0v1515h347v-611h7q44 112 133 170t216 58q185 0 286 -111t101 -309v-712h-355v636q0 98 -47.5 152.5t-137.5 54.5q-92 0 -144 -59.5t-52 -156.5v-627
h-354z" />
    <glyph glyph-name="Itildebelow" unicode="&#x1e2c;" horiz-adv-x="585" 
d="M476 0h-367v1443h367v-1443zM440 -447q-48 0 -90.5 20t-67.5 43.5t-53.5 43.5t-51.5 20q-33 0 -50 -30.5t-19 -79.5h-181q0 131 67 207t167 76q49 0 92 -20t68.5 -43.5t53.5 -43.5t51 -20q64 0 67 114h181q0 -130 -67.5 -208.5t-166.5 -78.5z" />
    <glyph glyph-name="itildebelow" unicode="&#x1e2d;" horiz-adv-x="537" 
d="M91 0v1113h355v-1113h-355zM268 1205q-76 0 -129 50t-53 125q0 74 53 124.5t129 50.5t129.5 -50.5t53.5 -124.5q0 -75 -53 -125t-130 -50zM415 -447q-48 0 -90.5 20t-67.5 43.5t-53.5 43.5t-51.5 20q-33 0 -50 -30.5t-19 -79.5h-181q0 131 67 207t167 76q49 0 92 -20
t68.5 -43.5t53.5 -43.5t51 -20q64 0 67 114h181q0 -130 -67.5 -208.5t-166.5 -78.5z" />
    <glyph glyph-name="Idieresisacute" unicode="&#x1e2e;" horiz-adv-x="585" 
d="M476 0h-367v1443h367v-1443zM158 1907l198 263h290l-238 -263h-250zM79 1549q-61 0 -102.5 40.5t-41.5 97.5q0 58 41 98t103 40t103 -40t41 -98q0 -57 -41.5 -97.5t-102.5 -40.5zM507 1549q-61 0 -102.5 40.5t-41.5 97.5q0 58 41 98t103 40t103 -40t41 -98
q0 -57 -41.5 -97.5t-102.5 -40.5z" />
    <glyph glyph-name="idieresisacute" unicode="&#x1e2f;" horiz-adv-x="537" 
d="M142 1637l192 275h291l-229 -275h-254zM51 1257q-62 0 -104.5 41.5t-42.5 99.5q0 59 42 100t105 41t105.5 -41t42.5 -100q0 -58 -42.5 -99.5t-105.5 -41.5zM484 1257q-63 0 -105 41t-42 100t42 100t105 41t105 -41t42 -100t-42 -100t-105 -41zM91 0v1113h355v-1113h-355z
" />
    <glyph glyph-name="Kacute" unicode="&#x1e30;" horiz-adv-x="1401" 
d="M821 1554h-269l232 316h313zM476 0h-367v1443h367v-634h8l491 634h394l-503 -641l532 -802h-431l-368 564l-123 -156v-408z" />
    <glyph glyph-name="kacute" unicode="&#x1e31;" horiz-adv-x="1179" 
d="M396 1626h-269l232 316h313zM456 687l327 426h396l-400 -477l423 -636h-408l-277 424l-68 -79v-345h-354v1515h354v-828h7z" />
    <glyph glyph-name="Kdotbelow" unicode="&#x1e32;" horiz-adv-x="1401" 
d="M696 -492q-69 0 -116.5 47.5t-47.5 115.5t47.5 115.5t116.5 47.5t116.5 -47.5t47.5 -115.5t-47.5 -115.5t-116.5 -47.5zM476 0h-367v1443h367v-634h8l491 634h394l-503 -641l532 -802h-431l-368 564l-123 -156v-408z" />
    <glyph glyph-name="kdotbelow" unicode="&#x1e33;" horiz-adv-x="1179" 
d="M600 -492q-69 0 -116.5 47.5t-47.5 115.5t47.5 115.5t116.5 47.5t116.5 -47.5t47.5 -115.5t-47.5 -115.5t-116.5 -47.5zM456 687l327 426h396l-400 -477l423 -636h-408l-277 424l-68 -79v-345h-354v1515h354v-828h7z" />
    <glyph glyph-name="Klinebelow" unicode="&#x1e34;" horiz-adv-x="1401" 
d="M476 0h-367v1443h367v-634h8l491 634h394l-503 -641l532 -802h-431l-368 564l-123 -156v-408zM1057 -235v-163h-722v163h722z" />
    <glyph glyph-name="klinebelow" unicode="&#x1e35;" horiz-adv-x="1179" 
d="M456 687l327 426h396l-400 -477l423 -636h-408l-277 424l-68 -79v-345h-354v1515h354v-828h7zM961 -235v-163h-722v163h722z" />
    </font>
</defs>
</svg>
